Суперсімейка / The Incredibles (2004) 1080p Ukr/Eng | Sub Ukr/Eng

Нові коментарі

Нова тема   Відповісти
Автор Повідомлення
Argentum 
VIP


З нами з: 25.09.11
Востаннє: 04.03.21
Повідомлень: 285

2018-11-01 13:38  
Суперсімейка / The Incredibles (2004) 1080p Ukr/Eng | Sub Ukr/Eng

Суперсімейка / The Incredibles (2004) 1080p Ukr/Eng | Sub Ukr/Eng


Жанр: анімація, фантастика, сімейний, комедія
Країна: США



Кінокомпанія: Pixar, Walt Disney Pictures
Режисер: Бред Берд
Актори: Крейґ Т. Нельсон, Голі Гантер, Джейсон Лі, Домінік Луї, Семюел Л. Джексон, Тедді Ньютон, Джин Сінсір, Ілай Фучіле, Маїв Ендрюс, Воллес Шоун

Сюжет:
Ця сімейка мешкає в тихому передмісті. Вони — сім'я супергероїв, проте вони вже відійшли від великих справ і вважають за краще жити звичним непримітним життям. Усі члени сім'ї мають надприродні здібності й у минулому легко справлялися зі злом світового масштабу. Аж ось одного прекрасного дня татові і усій його родині доводиться знов одягтися в прогумовані костюми супергероїв і відправитися назустріч новим пригодам. Потрібно вкотре врятувати світ від таємничого лиходія. Хто ж він такий? Цього ще не знають навіть герої з суперсімейки…


Тривалість: 01:55:25
Якість:
Відео:
кодек:
розмір кадру: 1920 х 802
бітрейт: 10500 кб/с

Аудіо # 1:
мова: українська
переклад: професійний дубльований
кодек: 2.0
бітрейт: 192 кб/с
Про дубляж

Михайло Жонін — Боб Парр/Містер Неймовірний
Юлія Перенчук — Гелен Парр/Еластика
Анастасія Зіновенко — Віолетта Парр/Фіалка
Деніс Капустін — Деш Парр/Шусть
Андрій Твердак — Люціус/Фрозон
Павло Скороходько — Баді Пейн/Синдром
Наталя Ярошенко — Міраж
Ірина Дорошенко — Една Мод
Євген Пашин — Рік Діккер
Наталя Романько-Кисельова — Карі, епізоди
Дмитро Завадський — Берні Кропп
Євген Малуха — диктор кінохроніки
Андрій Самінін — Гілберт Хавк
Ніна Касторф — літня господарка кота, епізоди
Людмила Ардельян — епізоди

Фільм дубльовано компанією «Невафільм Україна» на замовлення «Disney Character Voices International» у 2008 році.

Переклад синхронного тексту — Федір Сидорук
Режисери дубляжу — Ольга Фокіна, Олег Головко
Звукорежисер — Фелікс Трескунов
Диктор — Олександр Ігнатуша
Аудіо # 2:
мова: англійська
переклад: професійний дубльований
кодек: 5.1
бітрейт: 640 кб/с

Субтитри 1-2: (форсовані, повні)
мова: українська
тип: програмні (м'які)
формат: *.srt

Субтитри 3-4: (повні, SDH)
мова: англійська
тип: програмні (м'які)
формат: *.srt
Info
General
Unique ID : 250018554939518175334735013600507731180 (0xBC17D279256D7286EEF5151E85301CEC)
Complete name : The Incredibles (2004) [Ukr,Eng] 1080p [Hurtom].
Format :
Format version : Version 4
File size : 9.14 GiB
Duration : 1 h 55 min
Overall bit rate : 11.3 Mb/s
Movie name : The Incredibles (2004) [Ukr,Eng] 1080p
Encoded date : UTC 2018-11-02 16:01:07
Writing application : v28.2.0 ('The Awakening') 64-bit
Writing library : libebml v1.3.6 + v1.4.9
Attachments : 3d6cS34cNY5tE8qyRgl70uDWrRR.jpg

Video
ID : 1
Format : AVC
Format/Info : Advanced Video Codec
Format profile : [email protected]
Format settings : CABAC / 5 Ref Frames
Format settings, CABAC : Yes
Format settings, ReFrames : 5 frames
Codec ID : V_MPEG4/ISO/AVC
Duration : 1 h 55 min
Bit rate : 10.5 Mb/s
Width : 1 920 pixels
Height : 802 pixels
Display aspect ratio : 2.40:1
Frame rate mode : Constant
Frame rate : 23.976 (24000/1001) FPS
Color space : YUV
Chroma subsampling : 4:2:0
Bit depth : 8 bits
Scan type : Progressive
Bits/(Pixel*Frame) : 0.284
Stream size : 8.46 GiB (93%)
Title : AVC 1920*802 @ 10500 Kbps
Writing library : core 152 r2854 e9a5903
Encoding settings : cabac=1 / ref=5 / deblock=1:-3:-3 / analyse=0x3:0x133 / me=umh / subme=11 / psy=1 / psy_rd=1,00:0,15 / mixed_ref=1 / me_range=48 / chroma_me=1 / trellis=2 / 8x8dct=1 / cqm=0 / deadzone=21,11 / fast_pskip=0 / chroma_qp_offset=-3 / threads=12 / lookahead_threads=2 / sliced_threads=0 / nr=0 / decimate=1 / interlaced=0 / bluray_compat=0 / constrained_intra=0 / bframes=8 / b_pyramid=2 / b_adapt=2 / b_bias=0 / direct=3 / weightb=1 / open_gop=0 / weightp=2 / keyint=240 / keyint_min=24 / scenecut=40 / intra_refresh=0 / rc_lookahead=60 / rc=2pass / mbtree=0 / bitrate=10500 / ratetol=1,0 / qcomp=0,60 / qpmin=0 / qpmax=69 / qpstep=4 / cplxblur=20,0 / qblur=0,5 / vbv_maxrate=62500 / vbv_bufsize=78125 / nal_hrd=none / filler=0 / ip_ratio=1,40 / pb_ratio=1,30 / aq=1:1,00
Language : Multiple languages
Default : Yes
Forced : Yes
Color range : Limited
Color primaries : BT.709
Transfer characteristics : BT.709
Matrix coefficients : BT.709

Audio #1
ID : 2
Format : AC-3
Format/Info : Audio Coding 3
Commercial name : Dolby Digital
Codec ID : A_AC3
Duration : 1 h 55 min
Bit rate mode : Constant
Bit rate : 192 kb/s
Channel(s) : 2 channels
Channel layout : L R
Sampling rate : 48.0 kHz
Frame rate : 31.250 FPS (1536 SPF)
Bit depth : 16 bits
Compression mode : Lossy
Stream size : 159 MiB (2%)
Title : 2.0 @ 192 Kbps
Language : Ukrainian
Service kind : Complete Main
Default : Yes
Forced : Yes

Audio #2
ID : 3
Format : AC-3
Format/Info : Audio Coding 3
Commercial name : Dolby Digital
Codec ID : A_AC3
Duration : 1 h 55 min
Bit rate mode : Constant
Bit rate : 640 kb/s
Channel(s) : 6 channels
Channel layout : L R C LFE Ls Rs
Sampling rate : 48.0 kHz
Frame rate : 31.250 FPS (1536 SPF)
Bit depth : 16 bits
Compression mode : Lossy
Stream size : 528 MiB (6%)
Title : 5.1 @ 640 Kbps
Language : English
Service kind : Complete Main
Default : No
Forced : No

Text #1
ID : 4
Format : UTF-8
Codec ID : S_TEXT/UTF8
Codec ID/Info : UTF-8 Plain Text
Duration : 1 h 44 min
Bit rate : 2 b/s
Count of elements : 65
Stream size : 1.99 KiB (0%)
Title : Forced
Language : Ukrainian
Default : Yes
Forced : Yes

Text #2
ID : 5
Format : UTF-8
Codec ID : S_TEXT/UTF8
Codec ID/Info : UTF-8 Plain Text
Duration : 1 h 46 min
Bit rate : 97 b/s
Count of elements : 1210
Stream size : 76.2 KiB (0%)
Title : Full
Language : Ukrainian
Default : No
Forced : No

Text #3
ID : 6
Format : UTF-8
Codec ID : S_TEXT/UTF8
Codec ID/Info : UTF-8 Plain Text
Duration : 1 h 47 min
Bit rate : 63 b/s
Count of elements : 1334
Stream size : 49.7 KiB (0%)
Title : Full
Language : English
Default : No
Forced : No

Text #4
ID : 7
Format : UTF-8
Codec ID : S_TEXT/UTF8
Codec ID/Info : UTF-8 Plain Text
Duration : 1 h 47 min
Bit rate : 64 b/s
Count of elements : 1337
Stream size : 50.5 KiB (0%)
Title : SDH
Language : English
Default : No
Forced : No

Menu
00:00:00.000 : en:1. Golden Age
00:09:14.554 : en:2. Weddings & Lawsuits
00:11:32.734 : en:3. 15 Years & 50 Pounds Later
00:13:31.352 : en:4. After School
00:17:08.527 : en:5. Family Dinner
00:20:44.910 : en:6. 2 Ex-Supers
00:26:53.529 : en:7. A Super Defeated
00:30:42.215 : en:8. Help Wanted
00:34:54.592 : en:9. Nomanisan
00:41:27.235 : en:10. New & Improved
00:46:01.675 : en:11. Helen Suspects
00:48:54.515 : en:12. Helen & E
00:50:02.124 : en:13. An Important Meeting
00:54:01.780 : en:14. E's Lab
00:57:09.551 : en:15. Secrets Revealed
01:00:35.799 : en:16. Suiting Up
01:05:04.859 : en:17. Missile Lock
01:10:53.708 : en:18. Out To Sea
01:12:57.915 : en:19. Good Guys/Bad Guys
01:16:27.583 : en:20. Elastigirl Returns
01:19:19.213 : en:21. Caves & Rockets
01:21:13.911 : en:22. Lost & Found
01:23:59.659 : en:23. 100 Mile Dash
01:27:05.637 : en:24. Reunited
01:30:29.841 : en:25. Bob's Confession
01:32:47.395 : en:26. Frozone & Honey
01:33:33.024 : en:27. Omnidroid Attacks
01:34:30.540 : en:28. Road Trip
01:37:03.151 : en:29. The Incredibles vs. The Omnidroid
01:41:58.070 : en:30. Past vs. Future
01:45:40.000 : en:31. Happy Endings
01:47:33.322 : en:32. End Credits
Скріншоти






Джерело:

За доріжку #1 подяка пану braveboy

Особиста оцінка: 8 - мені сподобалося


Срібний реліз (на рейтинг впливає 50% завантаженого)
 Трекер:    Зареєстрований   

Завантажити / скачати мультфільм українською



відео для новачків



 Зареєстрований:   2018-11-03 12:39
 Розмір:   9.14 GB 
 Оцінка мультфільму:   9.7/10 (Голосів: 14)
   
Інші релізи
   Суперсімейка / The Incredibles (2004) AVC | Sub Ukr/Eng Patriot_ukr  26 / 0   1.8 GB   2020-04-24 10:32 
   Суперсімейка / The Incredibles (2004) [MP4, 640x] apvAltisimo  0 / 0   998 MB   2015-09-22 14:37 
   Суперсімейка / The Incredibles (2004) 720p Ukr/Eng | Sub Ukr/Eng braveboy  27 / 0   4.37 GB   2013-04-27 04:59 
   Суперсімейка / The Incredibles (2004) Ukr/Eng | Sub Ukr/Eng karvai0  29 / 0   2.18 GB   2013-04-26 12:18 
   Суперсімейка / The Incredibles (2004) 1080p-mini Zeus62  6 / 0   4.36 GB   2011-04-12 13:14 
bot 
робот


З нами з: 30.09.07
Востаннє: 26.05.05
Повідомлень: 27308

2018-11-03 12:38  
Тему перенесено з Анонси релізів до форуму Мультфільми в HD


Argentum

Vovka morkovka 
Свій


З нами з: 24.11.10
Востаннє: 21.02.21
Повідомлень: 76

2021-02-14 19:34  
Крутий мультик мого дитинства! Раджу усім переглянути і насолодитись, якщо ви ще цього не зробили! 10 з 10!
Ваш часовий пояс: GMT + 2 Години

Нова тема   Відповісти