Самотній вершник / Ride Lonesome (1959) 720p Ukr/Eng | Sub Eng

Нові коментарі

Нова тема   Відповісти
Автор Повідомлення
kryk-v.ya. 
Попереджень: 1
Попереджень: 1 


З нами з: 14.02.14
Востаннє: 09.07.20
Повідомлень: 2108

2018-11-01 13:16  
Самотній вершник / Ride Lonesome (1959) 720p Ukr/Eng | Sub Eng

Самотній вершник / Ride Lonesome (1959) 720p Ukr/Eng | Sub Eng


Жанр: вестерн
Країна: США



Кінокомпанія: Columbia Pictures Corporation
Режисер: Бадд Боттічер (Budd Boetticher)
Актори: Рендольф Скотт (Randolph Scott), Карен Стіл (Karen Steele), Пернелл Робертс (Pernell Roberts), Лі Ван Кліф (Lee Van Cleef), Джеймс Кобурн (James Coburn) та інші.

Сюжет:
Мисливець за злочинцями з незвичайним ім'ям Бен Брігейд захопив небезпечного вбивцю та везе його, щоб отримати винагороду. По дорозі проти своєї волі Брігейд зустрічає трьох попутників: привабливу дружину начальника станції та веселих головорізів, які збираються вкрасти у Брігейда його бранця.


Тривалість: 01:12:49
Якість: 720p
Відео:
кодек:
розмір кадру: 1280 х 544
бітрейт: 4 571 кб/с

Аудіо # 1:
мова: українська
переклад: багатоголосий закадровий ТакТреба Продакшн.
кодек: 2.0
бітрейт: 192 кб/с

Аудіо # 2:
мова: англійська
переклад: оригінал
кодек: 2.0
бітрейт: 192 кб/с

Джерело озвучення:


Субтитри:
мова: англійська
тип: програмні (м'які)
формат: *.srt
Info
eneral
Unique ID : 303553236072267025843589971927108812831 (0xE45E3A0973A7A7AEB329A7B7A5B2001F)
Complete name : D:\LOUD\Ride Lonesome (1959) 720p.
Format :
Format version : Version 4 / Version 2
File size : 2.52 GiB
Duration : 1 h 12 min
Overall bit rate : 4 958 kb/s
Encoded date : UTC 2018-11-01 08:45:45
Writing application : v25.0.0 ('Prog Noir') 64-bit
Writing library : libebml v1.3.6 + v1.4.9
Attachments : 0016.jpg

Video
ID : 1
Format : AVC
Format/Info : Advanced Video Codec
Format profile : [email protected]
Format settings : CABAC / 5 Ref Frames
Format settings, CABAC : Yes
Format settings, ReFrames : 5 frames
Codec ID : V_MPEG4/ISO/AVC
Duration : 1 h 12 min
Bit rate : 4 571 kb/s
Width : 1 280 pixels
Height : 544 pixels
Display aspect ratio : 2.35:1
Frame rate mode : Constant
Frame rate : 23.976 (24000/1001) FPS
Color space : YUV
Chroma subsampling : 4:2:0
Bit depth : 8 bits
Scan type : Progressive
Bits/(Pixel*Frame) : 0.274
Stream size : 2.32 GiB (92%)
Writing library : core 155 r2901 7d0ff22
Encoding settings : cabac=1 / ref=5 / deblock=1:-3:-3 / analyse=0x3:0x133 / me=umh / subme=8 / psy=1 / psy_rd=1.00:0.00 / mixed_ref=1 / me_range=16 / chroma_me=1 / trellis=1 / 8x8dct=1 / cqm=0 / deadzone=21,11 / fast_pskip=0 / chroma_qp_offset=-2 / threads=17 / lookahead_threads=2 / sliced_threads=0 / nr=0 / decimate=1 / interlaced=0 / bluray_compat=0 / constrained_intra=0 / bframes=3 / b_pyramid=2 / b_adapt=1 / b_bias=0 / direct=3 / weightb=1 / open_gop=0 / weightp=2 / keyint=250 / keyint_min=23 / scenecut=40 / intra_refresh=0 / rc_lookahead=50 / rc=2pass / mbtree=1 / bitrate=4571 / ratetol=1.0 / qcomp=0.60 / qpmin=0 / qpmax=69 / qpstep=4 / cplxblur=20.0 / qblur=0.5 / vbv_maxrate=62500 / vbv_bufsize=78125 / nal_hrd=none / filler=0 / ip_ratio=1.40 / aq=1:1.00
Default : Yes
Forced : No

Audio #1
ID : 2
Format : AC-3
Format/Info : Audio Coding 3
Commercial name : Dolby Digital
Codec ID : A_AC3
Duration : 1 h 12 min
Bit rate mode : Constant
Bit rate : 192 kb/s
Channel(s) : 2 channels
Channel positions : Front: L R
Sampling rate : 48.0 kHz
Frame rate : 31.250 FPS (1536 SPF)
Bit depth : 16 bits
Compression mode : Lossy
Stream size : 99.8 MiB (4%)
Title : ТТП (Інтер)
Language : Ukrainian
Service kind : Complete Main
Default : Yes
Forced : No

Audio #2
ID : 3
Format : AC-3
Format/Info : Audio Coding 3
Commercial name : Dolby Digital
Codec ID : A_AC3
Duration : 1 h 12 min
Bit rate mode : Constant
Bit rate : 192 kb/s
Channel(s) : 2 channels
Channel positions : Front: L R
Sampling rate : 48.0 kHz
Frame rate : 31.250 FPS (1536 SPF)
Bit depth : 16 bits
Compression mode : Lossy
Stream size : 99.8 MiB (4%)
Title : Оригінал
Language : English
Service kind : Complete Main
Default : No
Forced : No

Text
ID : 4
Format : UTF-8
Codec ID : S_TEXT/UTF8
Codec ID/Info : UTF-8 Plain Text
Duration : 1 h 9 min
Bit rate : 49 b/s
Count of elements : 686
Stream size : 25.2 KiB (0%)
Language : English
Default : Yes
Forced : No
Скріншоти






Джерело: &
Особиста оцінка: 10 - без зайвих вагань рекомендую всім!

Велика подяка пану robotron005 за доріжки(дві доріжки взяті з його релізу так як в релізі-джерелі, був оригінальний звук-одноканальний),субтитри знайдені в мережі.


Срібний реліз (на рейтинг впливає 50% завантаженого)
 Трекер:    Зареєстрований   

Завантажити / скачати фільм українською



відео для новачків



 Зареєстрований:   2018-11-01 13:16
 Розмір:   2.52 GB 
 Оцінка фільму:   8.9/10 (Голосів: 7)
   
Інші релізи
+380954897458 
VIP


З нами з: 02.06.17
Востаннє: 08.07.20
Повідомлень: 886

2018-11-01 22:01  
О, оце такі фільми я мав на увазі! Побільше старих вестернів, пригодницьких чи військових! Голівудських, звісно, бо вони стоять на порядок вище європейських.
dlimon 
Новенький


З нами з: 27.02.11
Востаннє: 05.07.20
Повідомлень: 18

2018-11-02 10:02  
+380954897458
Я не встигаю дивитись сучасні цікаві фільми, де Ви берете час на це ретро?

+380954897458 
VIP


З нами з: 02.06.17
Востаннє: 08.07.20
Повідомлень: 886

2018-11-02 23:16  
dlimon
Жертвую сном і вкрай рідкісним вільним часом. :-)) Інколи здається, що я люблю таке ретро сильніше ніж сучасні фільми. Була в старих фільмах якась велич, яку втратило новітнє кіно.

waldi-hurtom 
VIP


З нами з: 07.10.12
Востаннє: 08.07.20
Повідомлень: 1151

2018-11-03 17:30  
Та ніякої такої величі немає в старих фільмах - просто вижили ті, що варті уваги, а про решту забули. Саме це, як на мене, краще було б забути. Абсолютно не зачепило. 3 з 10.
+380954897458 
VIP


З нами з: 02.06.17
Востаннє: 08.07.20
Повідомлень: 886

2018-11-06 22:04  
waldi-hurtom
Як це нема величі? Та там суцільна велич! Марлон Брандо, Гамфрі Богарт, Кларк Гейбл, Джон Вейн, Берт Ланкастер, Керк Дуглас, Пол Ньюмен, Джон Форд, Ховард Хоукс, Альфред Хічкок, Девід Лін, Біллі Вайлдер... Можна продовжувати довго. Навіть забуті фільми та підзабуті актори, такі як Рендольф Скотт (якого я бачив до цьго лише в одному фільмі) варті уваги для голодного кіномана. І що не так з цим кіно? Типовий представник вестернів того часу, але в цьому його цінність і шарм. Дуже люблю відкривати такі стрічки для себе.

Ваш часовий пояс: GMT + 2 Години

Нова тема   Відповісти