Вірна рука - друг індіанців / Old surehand (1965) Remux 1080p Ukr/Ger | Sub Ger/Eng

Нові коментарі

Нова тема   Відповісти
Автор Повідомлення
kryk-v.ya. 
VIP


З нами з: 14.02.14
Востаннє: 08.12.19
Повідомлень: 1696

2018-10-31 19:52  
Вірна рука - друг індіанців / Old surehand (1965) Remux 1080p Ukr/Ger | Sub Ger/Eng

Вірна рука - друг індіанців / Old surehand (1965) Remux 1080p Ukr/Ger | Sub Ger/Eng


Жанр: вестерн
Країна: ФРН, Югославія



Кінокомпанія: Jadran Film
Режисер: Альфред Ворер (Alfred Vohrer)
Актори: Стюарт Ґрейнджер (Stewart Granger), П'єр Брайс (Pierre Brice), Ларрі Пеннелл (Larry Pennell), Летиція Роман (Leticia Roman), Масімо Джіротті-Теренс Хілл (Terence Hill)

Сюжет:
Відставний офіцер на прізвисько Генерал, що зібрав банду головорізів, будь-якими способами намагається знайти золото племені "Команчі", для цього він провокує війну індіанців з населенням мирного містечка. На їх біду в місті з'являється Шаттерхенд, якого індіанці прозвали "Вірна рука". Він зі своїм другом Віннету розслідує цю справу і не дає бандитам здійснити свої підступні плани. Пригодницький вестерн з чудовою музикою, прекрасними пейзажами назавжди залишиться в пам'яті глядачів.


Тривалість: 01:33:06
Якість: Remux 1080p

Відео:
кодек:
розмір кадру: 1920 х 1080
бітрейт: 22 Mб/с

Аудіо # 1:
мова: українська
переклад: двоголосий закадровий ,
кодек: 2.0 (з нового запису з Інтера за 29.01.2019)
бітрейт: 192 кб/с
спектри
,
Аудіо # 2:
мова: німецька
переклад: оригінал
кодек: -HD MA 5.1
бітрейт: 1869 кб/с

Субтитри:
мова: німецька
тип: пререндерні
формат: *.pgs

Субтитри:
мова: англійська
тип: пререндерні
формат: *.pgs

Збережено основні розділи як на Блю-рей.
Info
General
Unique ID : 54982898783249734443193699585839170635 (0x295D5234E4ADA2A6C77B71D1E8E1844B)
Complete name : D:\LOUD\Old Surehand (1965) Remux 1080p.
Format :
Format version : Version 4 / Version 2
File size : 15.7 GiB
Duration : 1 h 33 min
Overall bit rate mode : Variable
Overall bit rate : 24.1 Mb/s
Encoded date : UTC 2018-10-31 15:17:51
Writing application : v25.0.0 ('Prog Noir') 64-bit
Writing library : libebml v1.3.6 + v1.4.9
Attachments : 0015.jpg

Video
ID : 1
Format : AVC
Format/Info : Advanced Video Codec
Format profile : [email protected]
Format settings : CABAC / 4 Ref Frames
Format settings, CABAC : Yes
Format settings, ReFrames : 4 frames
Codec ID : V_MPEG4/ISO/AVC
Duration : 1 h 33 min
Bit rate mode : Variable
Bit rate : 22.0 Mb/s
Maximum bit rate : 30.0 Mb/s
Width : 1 920 pixels
Height : 1 080 pixels
Display aspect ratio : 16:9
Frame rate mode : Constant
Frame rate : 23.976 (24000/1001) FPS
Color space : YUV
Chroma subsampling : 4:2:0
Bit depth : 8 bits
Scan type : Progressive
Bits/(Pixel*Frame) : 0.442
Stream size : 14.3 GiB (91%)
Default : Yes
Forced : No
Color range : Limited
Color primaries : BT.709
Transfer characteristics : BT.709
Matrix coefficients : BT.709

Audio #1
ID : 2
Format : AC-3
Format/Info : Audio Coding 3
Commercial name : Dolby Digital
Codec ID : A_AC3
Duration : 1 h 33 min
Bit rate mode : Constant
Bit rate : 192 kb/s
Channel(s) : 2 channels
Channel positions : Front: L R
Sampling rate : 48.0 kHz
Frame rate : 31.250 FPS (1536 SPF)
Bit depth : 16 bits
Compression mode : Lossy
Stream size : 128 MiB (1%)
Title : DVO (K1)
Language : Ukrainian
Service kind : Complete Main
Default : Yes
Forced : No

Audio #2
ID : 3
Format :
Format/Info : Digital Theater Systems
Format profile : MA / Core
Codec ID : A_DTS
Duration : 1 h 33 min
Bit rate mode : Variable / Constant
Bit rate : 1 869 kb/s / 1 509 kb/s
Channel(s) : 6 channels
Channel positions : Front: L C R, Side: L R, LFE
Sampling rate : 48.0 kHz
Frame rate : 93.750 FPS (512 SPF)
Bit depth : 16 bits
Compression mode : Lossless / Lossy
Stream size : 1.22 GiB (8%)
Title : Оригінал
Language : German
Default : No
Forced : No

Text #1
ID : 4
Format : PGS
Muxing mode : zlib
Codec ID : S_HDMV/PGS
Codec ID/Info : Picture based subtitle format used on BDs/HD-DVDs
Duration : 1 h 32 min
Bit rate : 37.1 kb/s
Count of elements : 1732
Stream size : 24.5 MiB (0%)
Language : German
Default : Yes
Forced : No

Text #2
ID : 5
Format : PGS
Muxing mode : zlib
Codec ID : S_HDMV/PGS
Codec ID/Info : Picture based subtitle format used on BDs/HD-DVDs
Duration : 1 h 28 min
Bit rate : 33.1 kb/s
Count of elements : 1628
Stream size : 21.0 MiB (0%)
Language : English
Default : No
Forced : No

Menu
00:00:00.000 : en:00:00:00.000 / en:Глава 01
00:08:35.556 : en:00:08:35.556
00:21:48.807 : en:00:21:48.807
00:33:25.920 : en:00:33:25.920
00:43:58.844 : en:00:43:58.844
00:54:23.009 : en:00:54:23.009
01:03:01.527 : en:01:03:01.527
01:10:39.735 : en:01:10:39.735
01:21:58.246 : en:01:21:58.246
Скріншоти





Джерело: &
Особиста оцінка: 10 - без зайвих вагань рекомендую всім!

Велика подяка пану Bohdan237 за запис з ТБ
та пану Grytzz за постер.


Золотий реліз (завантажене не впливає на рейтинг)
 Трекер:    Зареєстрований   

Завантажити / скачати фільм українською



відео для новачків



 Зареєстрований:   2019-02-07 20:12
 Розмір:   15.66 GB 
 Оцінка фільму:   9.1/10 (Голосів: 10)
   
Інші релізи
   Вірна рука - друг індіанців / Old surehand (1965) AVC Ukr/Ger drop_plz  3 / 0   2.16 GB   2019-01-30 20:11 
   Вірна рука / Old surehand (1965) Ukr/Deu Givi  1 / 0   1.65 GB   2009-11-20 22:20 
docentus 
Частий відвідувач


З нами з: 14.04.15
Востаннє: 08.12.19
Повідомлень: 26

2018-11-01 16:12  
Кожне літо в селі ходили в дитинстві на цей фільм в клуб)))
kryk-v.ya. 
VIP


З нами з: 14.02.14
Востаннє: 08.12.19
Повідомлень: 1696

2018-11-01 16:32  
docentus
в якому селі?

dlimon 
Новенький


З нами з: 27.02.11
Востаннє: 08.12.19
Повідомлень: 16

2018-11-02 17:15  
Цікаво, то що в "совке" вважали шедевром, в цивілізованому світі має рейтінг IMDB 5.9, тобто близько до лайна.
kryk-v.ya. 
VIP


З нами з: 14.02.14
Востаннє: 08.12.19
Повідомлень: 1696

2018-11-02 19:52  
dlimon написано:
Цікаво, то що в "совке" вважали шедевром, в цивілізованому світі має рейтінг IMDB 5.9, тобто близько до лайна.

коли цей фільм вийшов в прокат і побив всі рекорди, такого поняття як IMDB ще не існувало,
засновано в 1990році,
та і все це відносно... ніколи не дивився фільм дивлячись на рейтинг.

dlimon 
Новенький


З нами з: 27.02.11
Востаннє: 08.12.19
Повідомлень: 16

2018-11-03 11:23  
kryk-v.ya.
Цитата:
ніколи не дивився фільм дивлячись на рейтинг.

А я вот завжди, за рідкісним виключенням, дивлюсь тільки фільми з рейтингом IMDB вище 7, та серіали з рейтингом вище 8.
Не маю часа та бажання дивитесь всяку нудотину в сподіваннях знайти перлину в купі лайна.

Додано через 6 хвилин 8 секунд:

Цитата:
коли цей фільм вийшов в прокат і побив всі рекорди


Рекорди світового прокату, чи радянського? "Совкі" не бачили жодного фільма, наприклад, Клінта Іствуда, тож не знали, що таке справжній вестерн.

До речі в той же рік вийшов з Іствудом "For a Few Dollars More" так він і має рейтінг 8.3
відчуйте різницю Wink (1)

kryk-v.ya. 
VIP


З нами з: 14.02.14
Востаннє: 08.12.19
Повідомлень: 1696

2018-11-03 15:30  
dlimon написано:
"For a Few Dollars More"

це теж європейський вестерн,так званий "спагетті-вестерн"...гівно рідкісне.

+380954897458 
VIP


З нами з: 02.06.17
Востаннє: 07.12.19
Повідомлень: 526

2019-01-31 19:51  
kryk-v.ya.
Цитата:
"спагетті-вестерн"...гівно рідкісне
Сподіваюся Ви це не серйозно, а іронічно і жартома.
kryk-v.ya. 
VIP


З нами з: 14.02.14
Востаннє: 08.12.19
Повідомлень: 1696

2019-01-31 20:11  
+380954897458
так не серьозно...але серед цих спагетті є рідкісний шлак, та і фільмів вартих уваги-обмаль.

kryk-v.ya. 
VIP


З нами з: 14.02.14
Востаннє: 08.12.19
Повідомлень: 1696

2019-02-07 20:15  
Реліз оновлено...07.02.2019.
замінив доріжку з К1 на нове озвучення від Інтера.
Цитата:
Аудіо # 1:
мова: українська
переклад: двоголосий закадровий
кодек: 2.0 (з 5.1)
-так було.
O_omarella! 
Свій


З нами з: 14.06.13
Востаннє: 01.12.19
Повідомлень: 139

2019-03-09 13:49  
Дайте швидкості будь ласка!!!!
kryk-v.ya. 
VIP


З нами з: 14.02.14
Востаннє: 08.12.19
Повідомлень: 1696

2019-03-09 16:01  
O_omarella!
я на роздачі постійно...ви це можете бачити вверху теми "роздають:"...
нас врятує сідбоксер... Wide grin

Ваш часовий пояс: GMT + 2 Години

Нова тема   Відповісти