Холод у липні / Cold in July (2014) Remux 1080p Ukr/Eng | Sub Eng

Нові коментарі

Нова тема   Відповісти
Автор Повідомлення
kryk-v.ya. 
Попереджень: 1
Попереджень: 1 


З нами з: 14.02.14
Востаннє: 25.09.20
Повідомлень: 2243

2018-10-31 18:04  
Холод у липні / Cold in July (2014) Remux 1080p Ukr/Eng | Sub Eng

Холод у липні / Cold in July (2014) Remux 1080p Ukr/Eng | Sub Eng

«Того, хто одного разу вбив вже не зупинити»


Жанр: драма, трилер, детектив
Країна: США, Франція



Кінокомпанія: BSM Studio, Belladonna Production, Backup Media, Paradise City
Режисер: Джим Мікл
Актори: Майкл К. Холл, Сем Шепард, Дон Джонсон та інші.

Сюжет:
Річард Дейн вів тихе і нічим не примітне життя, поки одного разу посеред ночі його дружина не почула, що в їх будинок заліз невідомий. Переконавшись у реальності її страхів, Річард схопив приготований на такий випадок револьвер і, зарядивши його, відправився захищати свій будинок і життя своїх рідних. Застреливши зловмисника, Річард був заарештований поліцією, однак захисники правопорядку не виявили жодного бажання садити під замок добропорядного громадянина.


Тривалість: 01:50:02
Якість: Remux 1080p
Відео:
кодек:
розмір кадру: 1920 х 1080
бітрейт: 23,7 Mб/с

Аудіо # 1:
мова: українська
переклад: багатоголосий закадровий KiT (ОБОЗ ТВ)
кодек: 2.0
бітрейт: 192 кб/с

Аудіо # 2:
мова: англійська
переклад: оригінал
кодек: -HD MA 5.1
бітрейт: 3609 кб/с

Субтитри:
мова: англійська
тип: пререндерні
формат: *.pgs

Збережено основні розділи як на Блю-рей.
Info
General
Unique ID : 165110192891793084927815597159048562826 (0x7C3711039D05F5B81B006222E184488A)
Complete name : D:\Cold in July (2014) Remux 1080p.
Format :
Format version : Version 4
File size : 21.1 GiB
Duration : 1 h 50 min
Overall bit rate mode : Variable
Overall bit rate : 27.5 Mb/s
Encoded date : UTC 2018-10-31 09:52:00
Writing application : v25.0.0 ('Prog Noir') 64-bit
Writing library : libebml v1.3.6 + v1.4.9
Attachments : 0083.jpg

Video
ID : 1
Format : AVC
Format/Info : Advanced Video Codec
Format profile : [email protected]
Format settings : CABAC / 4 Ref Frames
Format settings, CABAC : Yes
Format settings, ReFrames : 4 frames
Codec ID : V_MPEG4/ISO/AVC
Duration : 1 h 50 min
Bit rate mode : Variable
Bit rate : 23.7 Mb/s
Maximum bit rate : 35.0 Mb/s
Width : 1 920 pixels
Height : 1 080 pixels
Display aspect ratio : 16:9
Frame rate mode : Constant
Frame rate : 23.976 (24000/1001) FPS
Standard : NTSC
Color space : YUV
Chroma subsampling : 4:2:0
Bit depth : 8 bits
Scan type : Progressive
Bits/(Pixel*Frame) : 0.477
Stream size : 18.2 GiB (86%)
Default : Yes
Forced : No
Color range : Limited
Color primaries : BT.709
Transfer characteristics : BT.709
Matrix coefficients : BT.709

Audio #1
ID : 2
Format : AC-3
Format/Info : Audio Coding 3
Commercial name : Dolby Digital
Codec ID : A_AC3
Duration : 1 h 47 min
Bit rate mode : Constant
Bit rate : 192 kb/s
Channel(s) : 2 channels
Channel layout : L R
Sampling rate : 48.0 kHz
Frame rate : 31.250 FPS (1536 SPF)
Bit depth : 16 bits
Compression mode : Lossy
Stream size : 148 MiB (1%)
Title : Обоз-ТВ (КіТ)
Language : Ukrainian
Service kind : Complete Main
Default : Yes
Forced : No

Audio #2
ID : 3
Format : XLL
Format/Info : Digital Theater Systems
Commercial name : -HD Master Audio
Codec ID : A_DTS
Duration : 1 h 50 min
Bit rate mode : Variable
Bit rate : 3 609 kb/s
Channel(s) : 6 channels
Channel layout : C L R Ls Rs LFE
Sampling rate : 48.0 kHz
Frame rate : 93.750 FPS (512 SPF)
Bit depth : 24 bits
Compression mode : Lossless
Stream size : 2.77 GiB (13%)
Title : Оригінал
Language : English
Default : No
Forced : No

Text
ID : 4
Format : PGS
Muxing mode : zlib
Codec ID : S_HDMV/PGS
Codec ID/Info : Picture based subtitle format used on BDs/HD-DVDs
Duration : 1 h 49 min
Bit rate : 49.6 kb/s
Count of elements : 2291
Stream size : 38.9 MiB (0%)
Language : English
Default : Yes
Forced : No

Menu
00:00:00.000 : en:00:00:00.000 / en:Глава 01
00:07:02.881 : en:00:07:02.881
00:17:19.372 : en:00:17:19.372
00:26:53.737 : en:00:26:53.737
00:37:13.731 : en:00:37:13.731
00:44:20.950 : en:00:44:20.950
00:55:18.398 : en:00:55:18.398
01:04:46.091 : en:01:04:46.091
01:12:50.449 : en:01:12:50.449
01:22:56.555 : en:01:22:56.555
01:34:49.183 : en:01:34:49.183
01:45:44.505 : en:01:45:44.505
Скріншоти




Джерело: &
Особиста оцінка: 10 - без зайвих вагань рекомендую всім!

Велика подяка пану DareDevil96 за запис з ТБ, синхронізація моя.


Золотий реліз (завантажене не впливає на рейтинг)
 Трекер:    Зареєстрований   

Завантажити / скачати фільм українською



відео для новачків



 Зареєстрований:   2018-10-31 18:04
 Розмір:   21.14 GB 
 Оцінка фільму:   8.9/10 (Голосів: 12)
   
Інші релізи
   Холод у липні / Cold in July (2014) AVC Ukr/Eng | Sub Eng igor911  5 / 0   2.77 GB   2018-11-21 20:52 
DareDevil96 
Відео Гуртом - запис з ТБ
Відео Гуртом - запис з ТБ


З нами з: 23.07.10
Востаннє: 17.09.20
Повідомлень: 615

2018-10-31 19:04  
Фільм досить незвичний, але переглянув доволі легко. Любителям триллерів - зайде.) А в такій якості дивитись одне задоволення, дякую.
kryk-v.ya. 
Попереджень: 1
Попереджень: 1 


З нами з: 14.02.14
Востаннє: 25.09.20
Повідомлень: 2243

2018-10-31 19:43  
DareDevil96
прошу...цей фільм вперше на Гуртом.

drtato 
Поважний учасник


З нами з: 28.10.10
Востаннє: 23.09.20
Повідомлень: 169

2018-10-31 20:54  
Хлопці, а трошки "легший" варіант зробите?

,

kryk-v.ya. 
Попереджень: 1
Попереджень: 1 


З нами з: 14.02.14
Востаннє: 25.09.20
Повідомлень: 2243

2018-10-31 20:55  
drtato
ні.

igor911 
Модератор відео


З нами з: 18.01.08
Востаннє: 25.09.20
Повідомлень: 15006

2018-11-21 21:50  
drtato написано:
трошки "легший" варіант

https://toloka.to/t96669

povudlo 
Новенький


З нами з: 17.09.14
Востаннє: 24.09.20
Повідомлень: 21

2018-11-24 09:49  
igor911
це занадто легкий

Ваш часовий пояс: GMT + 2 Години

Нова тема   Відповісти