Залишайся / Stay (2005) 1080p H.265 Ukr/Eng | Sub Eng

Нові коментарі

Нова тема   Відповісти
Автор Повідомлення
Anonymous 







2018-10-31 17:51  
Залишайся / Stay (2005) 1080p H.265 Ukr/Eng | Sub Eng

Залишайся / Stay (2005) 1080p H.265 Ukr/Eng | Sub Eng

Жанр: драма, містика, трилер
Країна: США



Кінокомпанія: New Regency Pictures, Epsilon Motion Pictures, Regency Enterprises
Режисер: Марк Форстер
Актори: Еван Макгрегор, Райан Гослінг, Кейт Бартон, Наомі Уоттс, Боб Хоськінс, Елізабет Різер

Сюжет:
Знаходячись на межі божевілля студент Генрі Ліземо, розповідає психіатрові Сему Фостеру про те, що накладе на себе руки в суботу опівночі. Не бажаючи допустити загибелі Генрі, Сем вирішує зробити все від нього залежне, щоб позбавити парубка від нав'язливої ідеї. Разом з ним вирушає у подорож по місту, в ході якої і сам поступово починає занурюватися в кошмарні ілюзії пацієнта, балансуючи на тонкій межі між життям і смертю…


Тривалість: 01:38:56
Якість:
Відео:
кодек: H.265 (HEVC)
розмір кадру: 1912 х 808
бітрейт: 4 902 кб/с
бітова глибина: 10 біт
Увага! Перед завантаженням переконайтесь, що ваш пристрій відтворення (та/або ПЗ) підтримує H.265 (HEVC)

Аудіо # 1:
мова: українська
переклад: багатоголосий закадровий
кодек: 5.1
бітрейт: 448 кб/с

Аудіо # 2:
мова: англійська
переклад: оригінал
кодек: 5.1
бітрейт: 448 кб/с

Субтитри: # 1
мова: українська (Forced (На неозвучений епізод ~ 2 хв))
тип: програмні (м'які)
формат: *.srt

Субтитри # 2:
мова: англійська (Full)
тип: програмні (м'які)
формат: *.srt


Info
Код:
General
Unique ID                                : 161213833825508743223551736256132895419 (0x7948A7AE2BFE55C9ADF4846AFAFD52BB)
Complete name                            : F:\Video\Stay (2005) 1080p H.265 [UKR_ENG].
Format                                   :
Format version                           : Version 4 / Version 2
File size                                : 4.01 GiB
Duration                                 : 1 h 38 min
Overall bit rate                         : 5 801 kb/s
Movie name                               : Stay (2005)
Encoded date                             : UTC 2018-10-31 14:26:43
Writing application                      : v20.0.0 ('I Am The Sun') 32-bit
Writing library                          : libebml v1.3.5 + v1.4.8
Cover                                    : Yes
Attachments                              : Cover.jpg

Video
ID                                       : 1
Format                                   : HEVC
Format/Info                              : High Efficiency Video Coding
Format profile                           : Main [email protected]@Main
Codec ID                                 : V_MPEGH/ISO/HEVC
Duration                                 : 1 h 38 min
Bit rate                                 : 4 902 kb/s
Width                                    : 1 912 pixels
Height                                   : 808 pixels
Display aspect ratio                     : 2.35:1
Frame rate mode                          : Constant
Frame rate                               : 23.976 (24000/1001) FPS
Color space                              : YUV
Chroma subsampling                       : 4:2:0
Bit depth                                : 10 bits
Bits/(Pixel*Frame)                       : 0.132
Stream size                              : 3.39 GiB (85%)
Writing library                          : x265 2.8+69-856f056d392e:[Windows][MSVC 1915][64 bit] 10bit
Encoding settings                        : cpuid=1111039 / frame-threads=3 / numa-pools=12 / wpp / no-pmode / no-pme / no-psnr / no-ssim / log-level=2 / input-csp=1 / input-res=1912x808 / interlace=0 / total-frames=142306 / level-idc=0 / high-tier=1 / uhd-bd=0 / ref=4 / no-allow-non-conformance / no-repeat-headers / annexb / no-aud / no-hrd / info / hash=0 / no-temporal-layers / open-gop / min-keyint=23 / keyint=250 / gop-lookahead=0 / bframes=8 / b-adapt=2 / b-pyramid / bframe-bias=0 / rc-lookahead=80 / lookahead-slices=4 / scenecut=40 / radl=0 / no-intra-refresh / ctu=64 / min-cu-size=8 / rect / no-amp / max-tu-size=32 / tu-inter-depth=1 / tu-intra-depth=1 / limit-tu=0 / rdoq-level=2 / dynamic-rd=0.00 / no-ssim-rd / signhide / no-tskip / nr-intra=0 / nr-inter=0 / no-constrained-intra / no-strong-intra-smoothing / max-merge=3 / limit-refs=3 / limit-modes / me=3 / subme=5 / merange=57 / temporal-mvp / weightp / no-weightb / no-analyze-src-pics / deblock=-3:-3 / no-sao / no-sao-non-deblock / rd=4 / no-early-skip / rskip / no-fast-intra / no-tskip-fast / no-cu-lossless / no-b-intra / no-splitrd-skip / rdpenalty=0 / psy-rd=1.60 / psy-rdoq=1.40 / no-rd-refine / no-lossless / cbqpoffs=0 / crqpoffs=0 / rc=crf / crf=22.0 / qcomp=0.60 / qpstep=4 / stats-write=0 / stats-read=0 / ipratio=1.40 / pbratio=1.30 / aq-mode=3 / aq-strength=1.00 / cutree / zone-count=0 / no-strict-cbr / qg-size=32 / no-rc-grain / qpmax=69 / qpmin=0 / no-const-vbv / sar=0 / overscan=0 / videoformat=5 / range=0 / colorprim=2 / transfer=2 / colormatrix=2 / chromaloc=0 / display-window=0 / max-cll=0,0 / min-luma=0 / max-luma=1023 / log2-max-poc-lsb=8 / vui-timing-info / vui-hrd-info / slices=1 / no-opt-qp-pps / no-opt-ref-list-length-pps / no-multi-pass-opt-rps / scenecut-bias=0.05 / no-opt-cu-delta-qp / no-aq-motion / no-hdr / no-hdr-opt / no-dhdr10-opt / no-idr-recovery-sei / analysis-reuse-level=5 / scale-factor=0 / refine-intra=0 / refine-inter=0 / refine-mv=0 / no-limit-sao / ctu-info=0 / no-lowpass-dct / refine-mv-type=0 / copy-pic=1 / max-ausize-factor=1.0 / no-dynamic-refine / no-single-sei
Default                                  : Yes
Forced                                   : No

Audio #1
ID                                       : 2
Format                                   : AC-3
Format/Info                              : Audio Coding 3
Codec ID                                 : A_AC3
Duration                                 : 1 h 38 min
Bit rate mode                            : Constant
Bit rate                                 : 448 kb/s
Channel(s)                               : 6 channels
Channel positions                        : Front: L C R, Side: L R, LFE
Sampling rate                            : 48.0 kHz
Frame rate                               : 31.250 FPS (1536 SPF)
Bit depth                                : 16 bits
Compression mode                         : Lossy
Stream size                              : 317 MiB (8%)
Title                                    : Novy Kanal
Language                                 : Ukrainian
Service kind                             : Complete Main
Default                                  : Yes
Forced                                   : Yes

Audio #2
ID                                       : 3
Format                                   : AC-3
Format/Info                              : Audio Coding 3
Codec ID                                 : A_AC3
Duration                                 : 1 h 38 min
Bit rate mode                            : Constant
Bit rate                                 : 448 kb/s
Channel(s)                               : 6 channels
Channel positions                        : Front: L C R, Side: L R, LFE
Sampling rate                            : 48.0 kHz
Frame rate                               : 31.250 FPS (1536 SPF)
Bit depth                                : 16 bits
Compression mode                         : Lossy
Stream size                              : 317 MiB (8%)
Title                                    : Original
Language                                 : English
Service kind                             : Complete Main
Default                                  : No
Forced                                   : No

Text #1
ID                                       : 4
Format                                   : UTF-8
Codec ID                                 : S_TEXT/UTF8
Codec ID/Info                            : UTF-8 Plain Text
Duration                                 : 2 min 4 s
Bit rate                                 : 152 b/s
Count of elements                        : 36
Stream size                              : 2.31 KiB (0%)
Title                                    : Forced
Language                                 : Ukrainian
Default                                  : Yes
Forced                                   : Yes

Text #2
ID                                       : 5
Format                                   : UTF-8
Codec ID                                 : S_TEXT/UTF8
Codec ID/Info                            : UTF-8 Plain Text
Duration                                 : 1 h 28 min
Bit rate                                 : 57 b/s
Count of elements                        : 1073
Stream size                              : 37.2 KiB (0%)
Title                                    : Full
Language                                 : English
Default                                  : No
Forced                                   : No

Menu
00:00:00.000                             : en:Substitute Shrink
00:08:38.559                             : en:No Smoking
00:11:34.694                             : en:Practicing for Hell
00:18:15.052                             : en:Code Word
00:21:48.932                             : en:A Different Tradition
00:27:30.482                             : en:In Secret
00:30:16.564                             : en:Circle of Candles
00:37:10.436                             : en:First-Hand Knowledge
00:40:50.865                             : en:Exhausted
00:44:30.834                             : en:Playing Games
00:51:06.188                             : en:Seeing Things
00:53:24.409                             : en:Nothing Makes Sense
00:58:08.735                             : en:Too Much Beauty
01:01:29.602                             : en:Athena
01:09:29.039                             : en:Healing Hands
01:13:22.439                             : en:What It Takes
01:17:19.343                             : en:Because of Henry
01:20:39.042                             : en:Against the Clock
01:24:55.715                             : en:Illusions
01:31:58.846                             : en:End Titles
Скріншоти




Джерело:
Особиста оцінка: 0 - не дивився


>>> Усі мої релізи <<<



Срібний реліз (на рейтинг впливає 50% завантаженого)
 Трекер:    Зареєстрований   

Завантажити / скачати фільм українською



відео для новачків



 Зареєстрований:   2018-10-31 17:51
 Розмір:   4.01 GB 
 Оцінка фільму:   8.5/10 (Голосів: 2)
   
Інші релізи
   Залишайся / Stay (2005) 1080p Ukr/Eng | Sub Eng drop_plz  2 / 0   10.68 GB   2018-08-17 19:45 
   Залишайся / Stay (2005) AVC Ukr/Eng | Sub Eng vovikmar  0 / 0   2.64 GB   2017-07-01 11:00 
   Залишайся / Stay (2005) Ukr/Eng | Sub Eng Skiff  5 / 3   1.77 GB   2011-09-04 16:54 
lightinsight 
Свій


З нами з: 07.04.14
Востаннє: 27.09.20
Повідомлень: 128

2018-10-31 19:53  
Подорож - жіночого роду, виправте. Щось забагато помилок в описах останнім часом...
Anonymous 







2018-10-31 20:02  
lightinsight
Я їх сам не придумую, копіпаст з наявних релізів.

Ваш часовий пояс: GMT + 2 Години

Нова тема   Відповісти