Принц Ютландії / Prince of Jutland (1994) 720 Ukr/Eng | Sub Eng

Нові коментарі

Нова тема   Відповісти
Автор Повідомлення
staf777 
Відео Гуртом - підтримка та поширення
Відео Гуртом - підтримка та поширення


З нами з: 16.11.16
Востаннє: 23.01.20
Повідомлень: 3348

2018-10-31 16:47  
Принц Ютландії / Prince of Jutland (1994) 720 Ukr/Eng | Sub Eng

Принц Ютландії / Prince of Jutland (1994) 720 Ukr/Eng | Sub Eng


Жанр: драма, пригодницький
Країна: Нідерланди, Велика Британія, Данія, Франція, Німеччина



Кінокомпанія: Les Films Ariane, Woodline Films Ltd., Kenneth Madsen Filmproduktion A/S
Режисер: Ґебріел Аксель
Актори: Ґебріел Бірн, Гелен Міррен, Крістіан Бейл, Браян Кокс, Стівен Ведінґтон, Кейт Бекінсейл та інші

Сюжет:
У Данії проживає феодал Горвенділ. Він відомий своєю силою і мужністю. Норвезький король Коллер став заздрити феодалу, і він викликав його на смертельний поєдинок. На кону стояли всі багатства, тому переможець забирає собі все. Під час бою Говенділ вбиває короля Коллера, йому дістаються всі багатства. Після цього випадку король Данії Рерік віддав в дружини колишньому феодалу свою доньку Геррет. Незабаром у них з'являється син Амлет.


Тривалість: 01:47:52
Якість: 720p
Відео:
кодек:
розмір кадру: 1280x720
бітрейт: 5079 кб/с

Аудіо # 1:
мова: українська
переклад: багатоголосий закадровий
кодек: 2.0
бітрейт: 192 кб/с

Аудіо # 2:
мова: англійська
переклад: оригінал
кодек: 5.1
бітрейт: 640 кб/с

Джерело озвучення:


Субтитри:
мова: англійська
тип: програмні (м'які)
формат: *.srt
Info
General
Unique ID : 244127353455093092073458506436126847183 (0xB7A937D0929D66ACA8DBB14F769630CF)
Complete name : G:\Prince of Jutland (1994) 720p [UA][ENG][Hurtom].
Format :
Format version : Version 4 / Version 2
File size : 4.45 GiB
Duration : 1 h 47 min
Overall bit rate : 5 911 kb/s
Movie name : Prince of Jutland (1994) 720p [UA][ENG][Hurtom]
Encoded date : UTC 2018-11-02 16:26:59
Writing application : v24.0.0 ('Beyond The Pale') 64-bit
Writing library : libebml v1.3.6 + v1.4.9
Cover : Yes
Attachments : cover.jpg

Video
ID : 1
Format : AVC
Format/Info : Advanced Video Codec
Format profile : [email protected]
Format settings : CABAC / 9 Ref Frames
Format settings, CABAC : Yes
Format settings, ReFrames : 9 frames
Codec ID : V_MPEG4/ISO/AVC
Duration : 1 h 47 min
Bit rate : 5 079 kb/s
Width : 1 280 pixels
Height : 720 pixels
Display aspect ratio : 16:9
Frame rate mode : Constant
Frame rate : 23.976 (24000/1001) FPS
Color space : YUV
Chroma subsampling : 4:2:0
Bit depth : 8 bits
Scan type : Progressive
Bits/(Pixel*Frame) : 0.230
Stream size : 3.83 GiB (86%)
Title : Prince of Jutland (1994)
Writing library : core 148 r2638 7599210
Encoding settings : cabac=1 / ref=9 / deblock=1:-3:-3 / analyse=0x3:0x133 / me=umh / subme=11 / psy=1 / psy_rd=1.00:0.00 / mixed_ref=1 / me_range=32 / chroma_me=1 / trellis=2 / 8x8dct=1 / cqm=0 / deadzone=21,11 / fast_pskip=1 / chroma_qp_offset=-2 / threads=6 / lookahead_threads=1 / sliced_threads=0 / nr=0 / decimate=1 / interlaced=0 / bluray_compat=0 / constrained_intra=0 / bframes=5 / b_pyramid=2 / b_adapt=2 / b_bias=0 / direct=3 / weightb=1 / open_gop=0 / weightp=2 / keyint=240 / keyint_min=23 / scenecut=40 / intra_refresh=0 / rc_lookahead=60 / rc=2pass / mbtree=1 / bitrate=5079 / ratetol=1.0 / qcomp=0.60 / qpmin=0 / qpmax=69 / qpstep=4 / cplxblur=20.0 / qblur=0.5 / vbv_maxrate=50000 / vbv_bufsize=62500 / nal_hrd=none / filler=0 / ip_ratio=1.40 / aq=1:1.00
Language : English
Default : Yes
Forced : No

Audio #1
ID : 2
Format : AC-3
Format/Info : Audio Coding 3
Codec ID : A_AC3
Duration : 1 h 47 min
Bit rate mode : Constant
Bit rate : 192 kb/s
Channel(s) : 2 channels
Channel positions : Front: L R
Sampling rate : 48.0 kHz
Frame rate : 31.250 FPS (1536 SPF)
Bit depth : 16 bits
Compression mode : Lossy
Stream size : 148 MiB (3%)
Language : Ukrainian
Service kind : Complete Main
Default : Yes
Forced : Yes

Audio #2
ID : 3
Format : AC-3
Format/Info : Audio Coding 3
Codec ID : A_AC3
Duration : 1 h 47 min
Bit rate mode : Constant
Bit rate : 640 kb/s
Channel(s) : 2 channels
Channel positions : Front: L R
Sampling rate : 48.0 kHz
Frame rate : 31.250 FPS (1536 SPF)
Bit depth : 16 bits
Compression mode : Lossy
Stream size : 494 MiB (11%)
Title : , 2 ch, 640 Kbps, Original
Language : English
Service kind : Complete Main
Default : No
Forced : No

Text
ID : 4
Format : UTF-8
Codec ID : S_TEXT/UTF8
Codec ID/Info : UTF-8 Plain Text
Duration : 1 h 42 min
Bit rate : 25 b/s
Count of elements : 695
Stream size : 19.5 KiB (0%)
Language : English
Default : No
Forced : No
Скріншоти








Дякую пану krigg070 за доріжку

Джерело: &
Особиста оцінка: 0 - не дивився
Принц Ютландії / Prince of Jutland (1994) 720 Ukr/Eng | Sub Eng
Принц Ютландії / Prince of Jutland (1994) 720 Ukr/Eng | Sub Eng


Срібний реліз (на рейтинг впливає 50% завантаженого)
 Трекер:    Зареєстрований   

Завантажити / скачати фільм українською



відео для новачків



 Зареєстрований:   2018-11-02 19:28
 Розмір:   4.45 GB 
 Оцінка фільму:   7.4/10 (Голосів: 7)
   
Інші релізи
bot 
робот


З нами з: 30.09.07
Востаннє: 26.05.05
Повідомлень: 23051

2018-11-02 19:27  
Тему перенесено з Анонси релізів до форуму Фільми в HD


staf777

Ваш часовий пояс: GMT + 2 Години

Нова тема   Відповісти