Черепашки-ніндзя: стрибок у минуле / Half-Shell Heroes: Blast to the Past (2015) AVC

Нові коментарі

Нова тема   Відповісти
Автор Повідомлення
sergiyko.5 
VIP


З нами з: 25.02.16
Востаннє: 05.12.19
Повідомлень: 2801

2018-10-30 23:33  
Черепашки-ніндзя: стрибок у минуле / Half-Shell Heroes: Blast to the Past (2015) AVC


Черепашки-ніндзя: стрибок у минуле / Half-Shell Heroes: Blast to the Past (2015) AVC

Жанр: пригоди, комедія
Країна: США
Режисер: Глен Муракамі

Опис: Спеціальна годинна частина мультфільму "Черепашки ніндзя", заснований на іграх "Герої півкуль". Черепашки випадково перемістяться в Минуле, де повинні пройти свій шлях поміж доісторичні динозаврів і трицератонів, щоб знову потрапити до себе до дому в Сучасність.



Тривалість: 44:16
Якість:

Відео: кодек: розмір кадру: 1024 x 576 бітрейт: 1400 кб/с
Аудіо: мова: українська переклад: професійний дубльований кодек: 2.0 бітрейт: 192 кб/с
Озвучення:

Примітка: звук не розтягувався, просто синхронізувався.
Інформація про файл:
General
Unique ID : 211768116366476218177194752585690839564 (0x9F510E3F94B6A4B891CD9A683D94FA0C)
Complete name : G:\Torrents2\MULT\Teenage Mutant Ninja Turtles - Half-Shell Heroes.Blast to the Past..
Format :
Format version : Version 2
File size : 509 MiB
Duration : 44 min 16 s
Overall bit rate : 1 608 kb/s
Encoded date : UTC 2018-11-02 18:58:45
Writing application : v7.8.0 ('River Man') 32bit built on Apr 3 2015 12:11:22
Writing library : libebml v1.3.1 + v1.4.2

Video
ID : 1
Format : AVC
Format/Info : Advanced Video Codec
Format profile : [email protected]
Format settings : CABAC / 7 Ref Frames
Format settings, CABAC : Yes
Format settings, ReFrames : 7 frames
Codec ID : V_MPEG4/ISO/AVC
Duration : 44 min 16 s
Bit rate : 1 384 kb/s
Width : 1 024 pixels
Height : 576 pixels
Display aspect ratio : 16:9
Frame rate mode : Constant
Frame rate : 23.976 (24000/1001) FPS
Color space : YUV
Chroma subsampling : 4:2:0
Bit depth : 8 bits
Scan type : Progressive
Bits/(Pixel*Frame) : 0.098
Stream size : 438 MiB (86%)
Writing library : core 152 r2851 ba24899
Encoding settings : cabac=1 / ref=7 / deblock=1:0:0 / analyse=0x3:0x133 / me=umh / subme=9 / psy=1 / psy_rd=0.40:0.00 / mixed_ref=1 / me_range=24 / chroma_me=1 / trellis=2 / 8x8dct=1 / cqm=0 / deadzone=21,11 / fast_pskip=1 / chroma_qp_offset=-2 / threads=18 / lookahead_threads=2 / sliced_threads=0 / nr=0 / decimate=1 / interlaced=0 / bluray_compat=0 / constrained_intra=0 / bframes=5 / b_pyramid=2 / b_adapt=2 / b_bias=0 / direct=3 / weightb=1 / open_gop=0 / weightp=2 / keyint=250 / keyint_min=23 / scenecut=40 / intra_refresh=0 / rc_lookahead=60 / rc=crf / mbtree=1 / crf=19.0 / qcomp=0.70 / qpmin=0 / qpmax=69 / qpstep=4 / ip_ratio=1.40 / aq=1:0.60
Default : Yes
Forced : No

Audio
ID : 2
Format : AC-3
Format/Info : Audio Coding 3
Commercial name : Dolby Digital
Codec ID : A_AC3
Duration : 44 min 16 s
Bit rate mode : Constant
Bit rate : 192 kb/s
Channel(s) : 2 channels
Channel layout : L R
Sampling rate : 48.0 kHz
Frame rate : 31.250 FPS (1536 SPF)
Bit depth : 16 bits
Compression mode : Lossy
Stream size : 60.8 MiB (12%)
Service kind : Complete Main
Default : Yes
Forced : No
Скріншоти:



Запис/зведення: sergiyko


 Трекер:    Зареєстрований   

Завантажити / скачати мультфільм українською



відео для новачків



 Зареєстрований:   2018-11-02 21:24
 Розмір:   509 MB 
 Оцінка мультфільму:   9.7/10 (Голосів: 7)
   
bot 
робот


З нами з: 30.09.07
Востаннє: 26.05.05
Повідомлень: 22586

2018-10-30 23:33  
Тему перенесено з Мультфільми до форуму Анонси релізів


sergiyko.5

Bezverh 
Свій


З нами з: 04.09.18
Востаннє: 03.12.19
Повідомлень: 78

2018-10-31 12:13  
Режиссер Ген Мурокамі, цікаво )
RobertMenus 
Відео Гуртом - субтитрування
Відео Гуртом - субтитрування


З нами з: 08.03.11
Востаннє: 05.12.19
Повідомлень: 161

2018-11-01 14:02  
це не ті черепашки, на які ми заслуговували.
bot 
робот


З нами з: 30.09.07
Востаннє: 26.05.05
Повідомлень: 22586

2018-11-02 21:24  
Тему перенесено з Анонси релізів до форуму Мультфільми


sergiyko.5

RockKinder 
Свій


З нами з: 09.01.09
Востаннє: 19.11.19
Повідомлень: 62

2018-11-08 20:16  
RobertMenus
Так, це точно! На дану пародію ми не заслуговуємо...
Але ми заслуговуємо на TMNT (2007). А ще раджу глянути Turtles Forever (2009). Шкода, що останнього немає на Гуртом, мульт вартий уваги.
Але все одно, як великий прихильник Черепах, подивлюсь і цей мультик, для загального розвитку (чи то деградації).

RobertMenus 
Відео Гуртом - субтитрування
Відео Гуртом - субтитрування


З нами з: 08.03.11
Востаннє: 05.12.19
Повідомлень: 161

2018-11-08 23:19  
RockKinder
мені більше мультсеріал 2003 подобається.
turtles forever, кажуть, не дуже, хоча й я поки не бачив.

кіноекранізаії минулих років в цілому теж непогані. принаймні кращі за це.

RockKinder 
Свій


З нами з: 09.01.09
Востаннє: 19.11.19
Повідомлень: 62

2018-12-23 01:18  
Переглянув. По-чесному, то мульт нормальний. Дітям, думаю, зайде на ура. "Картинка" гарна, мало деталізована, проте барвиста, хоча я і не прихильник флеш-анімації. Гумор специфічний, декілька раз заставив засміятись вголос. Одним словом - можна глянути, хоч культовим серіал і не стане.
А от український дубляж однозначно заслуговує похвали, він просто неймовірний.

Ваш часовий пояс: GMT + 2 Години

Нова тема   Відповісти