Черепашки-ніндзя: стрибок у минуле / Half-Shell Heroes: Blast to the Past (2015) 1080p Ukr/Eng | Sub Eng

Нові коментарі

Нова тема   Відповісти
Автор Повідомлення
sergiyko.5 
VIP


З нами з: 25.02.16
Востаннє: 22.02.20
Повідомлень: 2940

2018-10-30 23:27  
Черепашки-ніндзя: стрибок у минуле / Half-Shell Heroes: Blast to the Past (2015) 1080p Ukr/Eng | Sub Eng


Черепашки-ніндзя: стрибок у минуле / Half-Shell Heroes: Blast to the Past (2015) 1080p Ukr/Eng | Sub Eng

Жанр: пригоди, комедія
Країна: США
Режисер: Глен Муракамі

Опис: Спеціальна годинна частина мультфільму "Черепашки ніндзя", заснований на іграх "Герої півкуль". Черепашки випадково перемістяться в Минуле, де повинні пройти свій шлях поміж доісторичні динозаврів і трицератонів, щоб знову потрапити до себе до дому в Сучасність.



Тривалість: 44:16
Якість:

Відео: кодек: розмір кадру: 1916 x 1076 бітрейт: 5143 кб/с
Аудіо #1: мова: українська переклад: професійний дубльований кодек: 2.0 бітрейт: 192 кб/с
Аудіо #2: мова: англійська переклад: оригінал кодек: 2.0 бітрейт: 160 кб/с
Озвучення:
Субтитри: мова: англійська тип: програмні (м’які) формат: *.srt

Примітка: звук не розтягувався, просто синхронізувався.
Інформація про файл:
General
Unique ID : 189296038100579317517314342837601213029 (0x8E69173F884A77196BD6845E30FC9A65)
Complete name : G:\Torrents2\MULT\Teenage Mutant Ninja Turtles - Half-Shell Heroes.Blast to the Past.1080p..
Format :
Format version : Version 4
File size : 1.70 GiB
Duration : 44 min 16 s
Overall bit rate : 5 494 kb/s
Movie name : Half-Shell Heroes. Blast to the Past 1080p by sergiyko
Encoded date : UTC 2018-11-02 18:27:26
Writing application : v28.1.0 ('Morning Child') 64-bit
Writing library : libebml v1.3.6 + v1.4.9

Video
ID : 1
Format : AVC
Format/Info : Advanced Video Codec
Format profile : [email protected]
Format settings : CABAC / 4 Ref Frames
Format settings, CABAC : Yes
Format settings, ReFrames : 4 frames
Codec ID : V_MPEG4/ISO/AVC
Duration : 44 min 16 s
Bit rate : 5 143 kb/s
Width : 1 916 pixels
Height : 1 076 pixels
Display aspect ratio : 16:9
Frame rate mode : Constant
Frame rate : 23.976 (24000/1001) FPS
Color space : YUV
Chroma subsampling : 4:2:0
Bit depth : 8 bits
Scan type : Progressive
Bits/(Pixel*Frame) : 0.104
Stream size : 1.59 GiB (94%)
Title : Half-Shell Heroes.Blast to the Past
Language : English
Default : Yes
Forced : No
Color range : Limited
Color primaries : BT.709
Transfer characteristics : BT.709
Matrix coefficients : BT.709

Audio #1
ID : 2
Format : AC-3
Format/Info : Audio Coding 3
Commercial name : Dolby Digital
Codec ID : A_AC3
Duration : 44 min 16 s
Bit rate mode : Constant
Bit rate : 192 kb/s
Channel(s) : 2 channels
Channel layout : L R
Sampling rate : 48.0 kHz
Frame rate : 31.250 FPS (1536 SPF)
Bit depth : 16 bits
Compression mode : Lossy
Stream size : 60.8 MiB (3%)
Title : DUB | ПлюсПлюс
Language : Ukrainian
Service kind : Complete Main
Default : Yes
Forced : Yes

Audio #2
ID : 3
Format : LC
Format/Info : Advanced Audio Codec Low Complexity
Codec ID : A_AAC-2
Duration : 44 min 16 s
Bit rate : 156 kb/s
Channel(s) : 2 channels
Channel layout : L R
Sampling rate : 48.0 kHz
Frame rate : 46.875 FPS (1024 SPF)
Compression mode : Lossy
Stream size : 49.4 MiB (3%)
Title : Original
Language : English
Default : No
Forced : No

Text
ID : 4
Format : UTF-8
Codec ID : S_TEXT/UTF8
Codec ID/Info : UTF-8 Plain Text
Duration : 43 min 52 s
Bit rate : 68 b/s
Count of elements : 880
Stream size : 22.0 KiB (0%)
Title : Original
Language : English
Default : No
Forced : No
Скріншоти:



Запис/зведення: sergiyko


 Трекер:    Зареєстрований   

Завантажити / скачати мультфільм українською



відео для новачків



 Зареєстрований:   2018-11-02 20:32
 Розмір:   1.7 GB 
 Оцінка мультфільму:   10/10 (Голосів: 3)
   
bot 
робот


З нами з: 30.09.07
Востаннє: 26.05.05
Повідомлень: 23354

2018-10-30 23:27  
Тему перенесено з Мультфільми в HD до форуму Анонси релізів


sergiyko.5

bot 
робот


З нами з: 30.09.07
Востаннє: 26.05.05
Повідомлень: 23354

2018-11-02 20:32  
Тему перенесено з Анонси релізів до форуму Мультфільми в HD


sergiyko.5

Ваш часовий пояс: GMT + 2 Години

Нова тема   Відповісти