Лікар Плюшева / Doc McStuffins (Сезон 4, 26 серій з 28) (2017) 1080p Ukr/Eng | sub Eng

Нові коментарі

Нова тема   Відповісти
Автор Повідомлення
sergiyko.5 
Забанено
Забанено


З нами з: 25.02.16
Востаннє: 29.10.20
Повідомлень: 3648

2018-10-30 22:38  


Лікар Плюшева / Doc McStuffins (Сезон 4) (2017) 1080p Ukr/Eng | sub Eng

Лікар Плюшева / Doc McStuffins (Сезон 4, 26 серій з 28) (2017) 1080p Ukr/Eng | sub Eng

Жанр: мультсеріал, пригоди, музичний
Країна: США, Ірландія
Кінокомпанія: Disney
Режисер: Нортон Вірген, Марія Естрада
Актори: Кіара Мухаммад, Джейден Беттс, Лара Джилл Міллер, Роббі Ріст, Лоретта Дивайн, Джесс Харнелл, Кімберлі Брукс, Кайлі Андерсон, Гарі Ентоні Уільямс, Кейтлін Кармайкл

Українською ролі озвучували:
Дана - Єлизавета Мастаєва
Хмарка - Анна Коваль
Вогник - Андрій Альохін
Краля - Олена Узлюк
Дрижик - Сергій Солопай
Данко - Віктор Григор'єв

Режисер дубляжу: Павло Скороходько
Перекладач: Тетяна Левченко
Переклад пісень: Роман Кисельов
Музичний керівник: Тетяна Піроженко


Сюжет:
Хорошим лікарем може бути навіть дитина. Головне – бажання допомогти близьким. У цьому впевнена 6-річна героїня мультсеріалу Дотті, що називає себе Лікар Плюшева, яка просто обожнює свої іграшки. Варто їй тільки піднести до них стетоскоп, і вони оживають!




Тривалість: 1 серія: 24:00 (цілком серій: 27)
Якість:

Відео: кодек: розмір кадру: 1920 х 1080 бітрейт: 5500 кб/с
Аудіо #1: мова: українська переклад: професійний дубльований кодек: 2.0 бітрейт: 192 кб/с
Аудіо #2: мова: англійська переклад: оригінал кодек: 2.0 бітрейт: 128 кб/с
Джерело озвучення:
Субтитри: мова: англійська тип: програмні (м’які) формат: *.srt
Перелік серій:

01.Welcome to McStuffinsville.Part 1
02.Welcome to McStuffinsville.Part 2
03.First Day of Med School-Stuffy Gets His Scrubs
04.Night Shift-Check Up Chilly
05.Project Nursery Makeover-Stuffy's Ambulance Ride
06.Made to Be a Nurse-Rescue at the Ranch
07.CeCe's First Bath-The Most Impatient Patient
08.Chilly's Snow Globe Shakeup-Hoarse Hallie
09.A Lesson in Diagnosis-Karaoke Katie's Opening Night
10.Nikki's Night in the E.R-Royal Buddies
11.Bouncy House Boo Boos-The Best Therapy Pet Yet
12.The Mayor's Speech-The Lake Monster
13.Chuck Learns to Look-Birthday Party Emergency
14.Get Well Gus Gets Well-Triceratops Trouble
15.Into the Hundred Acre Wood
16.Camille Gets Over the Hump-Willow's Wonky Whiskers
17.Mole Money, Mole Problems-Yip, Yip, Boom
18.Lambie Stuffy Switcharoo-The Sleepwalking King
19.Stuffy's Wild Pet-On Call Ball

22.Count Clarence's Daytime Adventure-Dixie Gets Glued
23.Lambie and the McStuffins Babies
24.Mermaid in the Midfield-Whole Lotta Hula
25.Hannah the Brave-Waddly's Huggy Overload
26.The Emergency Plan-What a Quack
27.1.First Responders to the Rescue.Part 1
27.2.First Responders to the Rescue.Part 2
28.On a Roll-Home is Where the Fruit is
Інформація про файл:
General
Unique ID : 33580459633395879730823124403338796150 (0x19435C7C8BD49F7966CC99F5307EDC76)
Complete name : E:\MULTFILMS\Doc McStuffins 1080p\Doc McStuffins S04 1080p\S04E01.Welcome to McStuffinsville.Part 1..1080p.
Format :
Format version : Version 4
File size : 928 MiB
Duration : 22 min 30 s
Overall bit rate : 5 762 kb/s
Movie name : Doc McStuffins S04 1080p by sergiyko
Encoded date : UTC 2018-10-30 18:23:56
Writing application : v28.1.0 ('Morning Child') 64-bit
Writing library : libebml v1.3.6 + v1.4.9

Video
ID : 1
Format : AVC
Format/Info : Advanced Video Codec
Format profile : [email protected]
Format settings : CABAC / 4 Ref Frames
Format settings, CABAC : Yes
Format settings, ReFrames : 4 frames
Codec ID : V_MPEG4/ISO/AVC
Duration : 22 min 30 s
Bit rate : 5 505 kb/s
Width : 1 920 pixels
Height : 1 080 pixels
Display aspect ratio : 16:9
Frame rate mode : Constant
Frame rate : 23.976 (24000/1001) FPS
Color space : YUV
Chroma subsampling : 4:2:0
Bit depth : 8 bits
Scan type : Progressive
Bits/(Pixel*Frame) : 0.111
Stream size : 886 MiB (96%)
Title : S04E01.Welcome to McStuffinsville.Part 1
Language : English
Default : Yes
Forced : No

Audio #1
ID : 2
Format : AC-3
Format/Info : Audio Coding 3
Commercial name : Dolby Digital
Codec ID : A_AC3
Duration : 22 min 30 s
Bit rate mode : Constant
Bit rate : 192 kb/s
Channel(s) : 2 channels
Channel layout : L R
Sampling rate : 48.0 kHz
Frame rate : 31.250 FPS (1536 SPF)
Bit depth : 16 bits
Compression mode : Lossy
Stream size : 30.9 MiB (3%)
Title : DUB | ПлюсПлюс
Language : Ukrainian
Service kind : Complete Main
Default : Yes
Forced : Yes

Audio #2
ID : 3
Format : LC SBR
Format/Info : Advanced Audio Codec Low Complexity with Spectral Band Replication
Commercial name : HE-
Format settings : Explicit
Codec ID : A_AAC-2
Duration : 22 min 30 s
Bit rate : 64.0 kb/s
Channel(s) : 2 channels
Channel layout : L R
Sampling rate : 48.0 kHz
Frame rate : 23.438 FPS (2048 SPF)
Compression mode : Lossy
Stream size : 10.3 MiB (1%)
Title : Original
Language : English
Default : No
Forced : No

Text
ID : 4
Format : UTF-8
Codec ID : S_TEXT/UTF8
Codec ID/Info : UTF-8 Plain Text
Duration : 21 min 48 s
Bit rate : 86 b/s
Count of elements : 477
Stream size : 13.8 KiB (0%)
Language : English
Default : No
Forced : No
Скріншоти:



Запис/зведення: sergiyko


Бронзовий реліз (на рейтинг впливає 75% завантаженого)
 Трекер:    Зареєстрований   

Завантажити / скачати мультфільм українською



відео для новачків



 Зареєстрований:   2018-10-30 22:38
 Розмір:   24.57 GB 
 Оцінка мультсеріалу:   9.8/10 (Голосів: 4)
   
Ваш часовий пояс: GMT + 2 Години

Нова тема   Відповісти