Париж! Париж! / Faubourg 36 (2008) 720p Ukr/Fre | Sub Eng

Нові коментарі

Нова тема   Відповісти
Автор Повідомлення
staf777 
Відео Гуртом - підтримка та поширення
Відео Гуртом - підтримка та поширення


З нами з: 16.11.16
Востаннє: 19.09.20
Повідомлень: 4018

2018-10-30 19:10  
Париж! Париж! / Faubourg 36 (2008) 720p Ukr/Fre | Sub Eng

Париж! Париж! / Faubourg 36 (2008)  720p Ukr/Fre | Sub Eng


Жанр: драма, мюзикл
Країна: Франція, Німеччина, Чехія



Кінокомпанія: Galatée Films, Pathé, Constantin Film
Режисер: Крістоф Барратьє
Актори: Жерар Жюньйо, Кловіс Корніяк, Кад Мерад та інші

Сюжет:
Париж, 1936 рік. Троє безробітних артистів вирішують силою повернути собі концертний зал "Шансон", де вони колись виступали. Але публіку, стривожену передвоєнною кризою, вже не надихають заїжджені вистави та жарти. І тоді трупа артистів наважується на несподіваний крок і дає шанс юній красуні заспівати на сцені "Шансон" її улюблену пісню "Париж! Париж!"


Тривалість: 02:00:07
Якість: 720p
Відео:
кодек:
розмір кадру: 1280x528
бітрейт: 6307 кб/с

Аудіо # 1:
мова: українська
переклад: багатоголосий закадровий
кодек: 2.0
бітрейт: 192 кб/с

Аудіо # 2:
мова: французька
переклад: оригінал
кодек: 5.1
бітрейт: 1509 кб/с

Субтитри:
мова: англійська
тип: програмні (м'які)
формат: *.srt
Info
General
Unique ID : 259914840497823867082372977220206647548 (0xC389C705B0146E528252852FD4A2D8FC)
Complete name : N:\Фільми HD\Драма\Faubourg 36 (2008) 720p [UA] [FRE] [Hurtom].
Format :
Format version : Version 4 / Version 2
File size : 6.72 GiB
Duration : 2 h 0 min
Overall bit rate : 8 012 kb/s
Movie name : Faubourg 36 (2008) 720p [UA] [FRE] [Hurtom]
Encoded date : UTC 2018-10-30 14:16:13
Writing application : v24.0.0 ('Beyond The Pale') 64-bit
Writing library : libebml v1.3.6 + v1.4.9
Cover : Yes
Attachments : cover.jpg

Video
ID : 1
Format : AVC
Format/Info : Advanced Video Codec
Format profile : [email protected]
Format settings : CABAC / 5 Ref Frames
Format settings, CABAC : Yes
Format settings, ReFrames : 5 frames
Codec ID : V_MPEG4/ISO/AVC
Duration : 2 h 0 min
Bit rate : 6 307 kb/s
Width : 1 280 pixels
Height : 528 pixels
Display aspect ratio : 2.40:1
Frame rate mode : Constant
Frame rate : 24.000 FPS
Color space : YUV
Chroma subsampling : 4:2:0
Bit depth : 8 bits
Scan type : Progressive
Bits/(Pixel*Frame) : 0.389
Stream size : 5.29 GiB (79%)
Title : Video
Writing library : core 67 r1128M 682b54d
Encoding settings : cabac=1 / ref=5 / deblock=1:0:0 / analyse=0x3:0x2 / me=umh / subme=7 / psy_rd=1.0:0.0 / mixed_ref=1 / me_range=16 / chroma_me=1 / trellis=1 / 8x8dct=1 / cqm=0 / deadzone=21,11 / chroma_qp_offset=-2 / threads=6 / nr=0 / decimate=1 / mbaff=0 / bframes=3 / b_pyramid=1 / b_adapt=1 / b_bias=0 / direct=1 / wpredb=1 / keyint=250 / keyint_min=25 / scenecut=40 / rc=2pass / bitrate=6307 / ratetol=1.0 / qcomp=0.60 / qpmin=10 / qpmax=51 / qpstep=4 / cplxblur=20.0 / qblur=0.5 / ip_ratio=1.40 / pb_ratio=1.30 / aq=1:1.00
Language : French
Default : Yes
Forced : No

Audio #1
ID : 2
Format : AC-3
Format/Info : Audio Coding 3
Codec ID : A_AC3
Duration : 2 h 0 min
Bit rate mode : Constant
Bit rate : 192 kb/s
Channel(s) : 2 channels
Channel positions : Front: L R
Sampling rate : 48.0 kHz
Frame rate : 31.250 FPS (1536 SPF)
Bit depth : 16 bits
Compression mode : Lossy
Stream size : 165 MiB (2%)
Title : [UA-MVO-CINE+]
Language : Ukrainian
Service kind : Complete Main
Default : Yes
Forced : Yes

Audio #2
ID : 3
Format :
Format/Info : Digital Theater Systems
Codec ID : A_DTS
Duration : 2 h 0 min
Bit rate mode : Constant
Bit rate : 1 509 kb/s
Channel(s) : 6 channels
Channel positions : Front: L C R, Side: L R, LFE
Sampling rate : 48.0 kHz
Frame rate : 93.750 FPS (512 SPF)
Bit depth : 16 bits
Compression mode : Lossy
Stream size : 1.27 GiB (19%)
Language : French
Default : No
Forced : No

Text
ID : 4
Format : UTF-8
Codec ID : S_TEXT/UTF8
Codec ID/Info : UTF-8 Plain Text
Duration : 1 h 53 min
Bit rate : 52 b/s
Count of elements : 1649
Stream size : 43.7 KiB (0%)
Language : English
Default : No
Forced : No
Скріншоти



Запис звуку Sando7 Синхронізація krigg070
Джерело: &
Париж! Париж! / Faubourg 36 (2008)  720p Ukr/Fre | Sub Eng
Париж! Париж! / Faubourg 36 (2008)  720p Ukr/Fre | Sub Eng


 Трекер:    Зареєстрований   

Завантажити / скачати фільм українською



відео для новачків



 Зареєстрований:   2018-10-30 19:10
 Розмір:   6.72 GB 
 Оцінка фільму:   9.1/10 (Голосів: 10)
   
Інші релізи
   Париж! Париж! / Faubourg 36 (2008) AVC krigg070  3 / 0   1.24 GB   2017-12-03 16:27 
hetzendorf 
Забанено
Забанено


З нами з: 23.07.15
Востаннє: 18.09.20
Повідомлень: 2876

2020-04-13 12:20  
Це один з тих рідкісних випадків, коли мені подобається мюзікль. По-перше, тут це органічна невід'ємна частина сюжету, тому вибір жанру є цілковито логічним. По-друге співають милозвучною й розбірливою мовою під звичну традиційну музику. Суттєвим недоліком хотілося б відмітити недоречну як на мене політизованість із м'яко кажучи дивною пропагандою комунізму через належність до цієї злочинної політсили одного з головних героїв. Проте, я не став звертати на це надмірної уваги, оскільки, переглянувши фільм, я ніби ковтнув свіжого повітря, відчувши дух того старого французького кіно, що раптово виринув серед засилля холівудщини й тому подібних чайосьорбо-піндоських шаблонів. Зіркова трійця — Жерар Жюньйо, Кад Мерад, П'єр Рішар — зробила вагомий внесок задля успіху фільма.
10/10

Ваш часовий пояс: GMT + 2 Години

Нова тема   Відповісти