Нульовий канал. Двері мрії (Сезон 4) / Channel Zero (Season 4) (2018)

Нові коментарі

Нова тема   Відповісти
Автор Повідомлення
DniproFilm 
Частий відвідувач


З нами з: 10.10.18
Востаннє: 13.11.18
Повідомлень: 40

2018-10-30 06:08  
Нульовий канал. Двері мрії (Сезон 4) / Channel Zero (Season 4) (2018)

Нульовий канал. Двері мрії (Сезон 4) / Channel Zero (Season 4) (2018)


Жанр: драма, трилер, жахи, фантастика
Країна: США


Кінокомпанія / телеканал: Universal Cable Productions
Режисер: Алекс Ферні
Актори/ролі озвучують: Пол Шнайдер, Фіона Шоу, Наталі Браун, Лілан Боуден, Тімм Шарп, Бетсі содар, Сюзанн Рош, Девід Теюн, Крістін Кім, Маршалл Такер та інші

Сюжет:
У центрі сюжету першої виявляється Майк Пейнтер - дитячий психолог, який будучи ще дитиною, став свідком таємничого зникнення рідного брата-близнюка Едді, а також чотирьох його друзів, що стався в їх рідному провінційному містечку Айрон-Хілл в далекому 1988 році. Через кілька десятиліть наш герой повертається в Айрон-Хілл, щоб спробувати з'ясувати справжні причини зникнення дітей. А допомагати йому в нелегкій загадковій справі буде його давній друг Гері, який давно вже обзавівся сім'єю, виховує двох дітей, а також займає посаду шерифа Айрон-Хілл. Разом з молодою помічницею шерифа Емі, яка в силу своєї молодості лише чула про трагічне зникнення малюків, нашим героям доведеться зіткнутися зі справжнім кошмаром, пов'язаним з химерною дитячою телевізійною передачею 80-х років. Ось тільки місцеві жителі, включаючи стареньку Марлу, мати Майка, і Джессіку, дружину Гері, вкрай стурбовані тим, що ворушіння минулого накличе на тихе і спокійне містечко нову біду.


Тривалість: 1 серія: ~ 44 хв. (цілком серій: 6)
Перелік серій

1. Ashes on My Pillow
2. Where Did You Sleep Last Night
3. Love Hurts
4. Bizarre Love Triangle
5. You Belong to Me
6. Two of Us
Якість:
Відео:
кодек:
розмір кадру: 720x400
бітрейт: ~1800 кб/с

Аудіо # 1:
мова: українська
переклад: багатоголосий закадровий
кодек: 2.0
бітрейт: 192 кб/с

Джерело озвучення:
DniproFilm
Info

Video
ID : 0
Format : MPEG-4 Visual
Format profile : Advanced [email protected]
Format settings : BVOP2
Format settings, BVOP : 2
Format settings, QPel : No
Format settings, GMC : No warppoints
Format settings, Matrix : Default (H.263)
Muxing mode : Packed bitstream
Codec ID :
Codec ID/Hint :
Duration : 43 min 47 s
Bit rate : 1 739 kb/s
Width : 720 pixels
Height : 400 pixels
Display aspect ratio : 16:9
Frame rate : 23.976 (24000/1001) FPS
Color space : YUV
Chroma subsampling : 4:2:0
Bit depth : 8 bits
Scan type : Progressive
Compression mode : Lossy
Bits/(Pixel*Frame) : 0.252
Stream size : 545 MiB (90%)
Writing library : 67

Audio
ID : 1
Format : AC-3
Format/Info : Audio Coding 3
Commercial name : Dolby Digital
Codec ID : 2000
Duration : 43 min 47 s
Bit rate mode : Constant
Bit rate : 192 kb/s
Channel(s) : 2 channels
Channel positions : Front: L R
Sampling rate : 48.0 kHz
Frame rate : 31.250 FPS (1536 SPF)
Bit depth : 16 bits
Compression mode : Lossy
Stream size : 60.1 MiB (10%)
Alignment : Aligned on interleaves
Interleave, duration : 42 ms (1.00 video frame)
Interleave, preload duratio : 512 ms
Service kind : Complete Main
Скріншоти


Увага, присутня відео та аудіореклама.


Джерело: DniproFilm


Авторський реліз (завантажувати можна без реєстрації)
 Трекер:    Зареєстрований   

Завантажити / скачати серіал українською



відео для новачків



 Зареєстрований:   2018-10-30 06:08
 Розмір:   3.51 GB 
 Оцінка серіалу:   10/10 (Голосів: 4)
   
77997997 
VIP


З нами з: 26.02.13
Востаннє: 14.11.18
Повідомлень: 590

2018-10-30 07:28  
Шановні DniproFilm, а чи не варто щось озвучувати з першого сезону??? А то є останній сезон українською, а перших - немає. Якось починати дивитися серіал з кінця(((.
Це так моя особиста думка...
А на рахунок Вашої роботи - то дякую і озвучка гарнаHappy))

respect14 
VIP


З нами з: 26.01.11
Востаннє: 13.11.18
Повідомлень: 549

2018-10-30 14:48  
Якось дивно дивитись з 4-го сезону... чому не почали з першого?
Пан_Олександр 
Відео Гуртом - дизайнер
Відео Гуртом - дизайнер


З нами з: 21.10.10
Востаннє: 13.11.18
Повідомлень: 169

2018-10-30 15:55  
77997997,respect14
Якщо мені пам'ять не зраджує, то кожен сезон - це окрема історія, тому послідовність сезонів тут не потрібна, + це жахастик, страшно таке дивитися взагалі))

Bezverh 
Новенький


З нами з: 04.09.18
Востаннє: 13.11.18
Повідомлень: 19

2018-10-31 12:39  
де трейлер у шапці ? хочу почути озвучку )
Ваш часовий пояс: GMT + 2 Години

Нова тема   Відповісти