Нульовий канал. Двері мрії (Сезон 4) / Channel Zero (Season 4) (2018) 1080p Ukr/Eng

Нові коментарі

Нова тема   Відповісти
Останній раз роздавалося RostLW (2019-02-20)
Автор Повідомлення
DniproFilm 
VIP


З нами з: 10.10.18
Востаннє: 29.11.20
Повідомлень: 443

2018-10-30 06:08  
Нульовий канал. Двері мрії (Сезон 4) / Channel Zero (Season 4) (2018) Ukr/Eng

Нульовий канал. Двері мрії (Сезон 4) / Channel Zero (Season 4) (2018) 1080p Ukr/Eng


Жанр: драма, трилер, жахи, фантастика
Країна: США


Кінокомпанія / телеканал: Universal Cable Productions
Режисер: Алекс Ферні
Актори/ролі озвучують: Пол Шнайдер, Фіона Шоу, Наталі Браун, Лілан Боуден, Тімм Шарп, Бетсі содар, Сюзанн Рош, Девід Теюн, Крістін Кім, Маршалл Такер та інші

Сюжет:
У центрі сюжету першої виявляється Майк Пейнтер - дитячий психолог, який будучи ще дитиною, став свідком таємничого зникнення рідного брата-близнюка Едді, а також чотирьох його друзів, що стався в їх рідному провінційному містечку Айрон-Хілл в далекому 1988 році. Через кілька десятиліть наш герой повертається в Айрон-Хілл, щоб спробувати з'ясувати справжні причини зникнення дітей. А допомагати йому в нелегкій загадковій справі буде його давній друг Гері, який давно вже обзавівся сім'єю, виховує двох дітей, а також займає посаду шерифа Айрон-Хілл. Разом з молодою помічницею шерифа Емі, яка в силу своєї молодості лише чула про трагічне зникнення малюків, нашим героям доведеться зіткнутися зі справжнім кошмаром, пов'язаним з химерною дитячою телевізійною передачею 80-х років. Ось тільки місцеві жителі, включаючи стареньку Марлу, мати Майка, і Джессіку, дружину Гері, вкрай стурбовані тим, що ворушіння минулого накличе на тихе і спокійне містечко нову біду.


Тривалість: 1 серія: ~ 44 хв. (цілком серій: 6)
Перелік серій

1. Ashes on My Pillow
2. Where Did You Sleep Last Night
3. Love Hurts
4. Bizarre Love Triangle
5. You Belong to Me
6. Two of Us
Якість:
Відео:
кодек:
розмір кадру: 1920x1080
бітрейт: ~7000 кб/с

Аудіо # 1:
мова: українська
переклад: багатоголосий закадровий
кодек: 2.0
бітрейт: 192 кб/с

Аудіо # 2:
мова: англійська
переклад: оригінал
кодек: 2.0
бітрейт: 384 кб/с

Джерело озвучення:
DniproFilm
Info

Video
ID : 1
Format : AVC
Format/Info : Advanced Video Codec
Format profile : [email protected]
Format settings : CABAC / 4 Ref Frames
Format settings, CABAC : Yes
Format settings, ReFrames : 4 frames
Codec ID : V_MPEG4/ISO/AVC
Duration : 43 min 47 s
Bit rate : 6 928 kb/s
Width : 1 920 pixels
Height : 1 080 pixels
Display aspect ratio : 16:9
Frame rate mode : Constant
Frame rate : 23.976 (24000/1001) FPS
Standard : NTSC
Color space : YUV
Chroma subsampling : 4:2:0
Bit depth : 8 bits
Scan type : Progressive
Bits/(Pixel*Frame) : 0.139
Stream size : 2.12 GiB (92%)
Language : English
Default : Yes
Forced : No
Color range : Limited
Color primaries : BT.709
Transfer characteristics : BT.709
Matrix coefficients : BT.709

Audio #1
ID : 2
Format : AC-3
Format/Info : Audio Coding 3
Commercial name : Dolby Digital
Codec ID : A_AC3
Duration : 43 min 47 s
Bit rate mode : Constant
Bit rate : 192 kb/s
Channel(s) : 2 channels
Channel positions : Front: L R
Sampling rate : 48.0 kHz
Frame rate : 31.250 FPS (1536 SPF)
Bit depth : 16 bits
Compression mode : Lossy
Stream size : 60.1 MiB (3%)
Title : DniproFilm
Language : Ukrainian
Service kind : Complete Main
Default : Yes
Forced : No

Audio #2
ID : 3
Format : AC-3
Format/Info : Audio Coding 3
Codec ID : A_AC3
Duration : 43 min 16 s
Bit rate : 384 kb/s
Channel(s) : 2 channels
Sampling rate : 48.0 kHz
Frame rate : 31.250 FPS (1536 SPF)
Compression mode : Lossy
Stream size : 119 MiB (5%)
Language : English
Default : No
Forced : No
Скріншоти


Увага, присутня відео та аудіореклама.


Джерело: DniproFilm


Авторський реліз (завантажувати можна без реєстрації)
 Трекер:    Зареєстрований   

Завантажити / скачати серіал українською



відео для новачків



 Зареєстрований:   2018-10-30 06:08
 Розмір:   13.38 GB 
 Оцінка серіалу:   10/10 (Голосів: 4)
   
Ваш часовий пояс: GMT + 2 Години

Нова тема   Відповісти