Не залишай слідів / Leave No Trace (2018) 720p Eng | Sub Ukr/Eng

Нові коментарі

Нова тема   Відповісти
Автор Повідомлення
Anonymous 







2018-10-30 02:50  
Не залишай слідів / Leave No Trace (2018) 720p Eng | Sub Ukr/Eng

Не залишай слідів / Leave No Trace (2018) 720p Eng | Sub Ukr/Eng
Оригінальні обкладинки та постери:









Жанр: драма
Країна: США, Канада



Кінокомпанія: BRON Studios, Harrison Productions, Topic Studios
Режисер: Дебра Ґранік / Debra Granik
Актори: Бен Фостер / Ben Foster, Томасін МакКензі / Thomasin McKenzie, Дейл Діккі / Dale Dickey, Дена Міллікен / Dana Millican, Джеф Кобер / Jeff Kober та інші.

Сюжет:
Вілл і Том - батько і дочка, які живуть в лісопарку, добровільно ізолювавши себе від суспільства. Вілл - ветеран війни в Іраку, що страждає на ПТСР. Він вважає, що краще пити дощову воду і харчуватися дарами природи, лише іноді відвідуючи місто, ніж жити серед людей. Але за законом бездомним бути дозволяється, а ось жити на громадській землі - ні. Після того, як рейнджери і соц.працівники виявляють нелегальних робінзонів, Віллу та Том доводиться залишити парк. Дівчина має обирати між батьком-відлюдником та можливістю жити у суспільстві.


Тривалість: 01:49:08
Якість: 720p [ріп від DON]
Відео:
кодек:
розмір кадру: 1280 х 692
бітрейт: 6253 кб/с

Аудіо:
мова: англійська
переклад: оригінал
кодек: 5.1
бітрейт: 640 кб/с

Субтитри #1:
мова: українська
тип: програмні (м'які)
формат: *.srt

Субтитри # 2-3:
мова: англійська (повні, SDH)
тип: програмні (м'які)
формат: *.srt

Збережено оригінальні розділи, як на Blu-ray
Info
Код:
Complete name               : Leave No Trace (2018) [Eng sub.Ukr,Eng] 720p [Hurtom].
Format                      :
Format version              : Version 4
File size                   : 5.26 GiB
Duration                    : 1 h 49 min
Overall bit rate            : 6 895 kb/s
Movie name                  : Не залишай слідів / Leave No Trace (2018) [Eng sub.Ukr,Eng] 720p [Hurtom]
Released date               : 2018
Encoded date                : UTC 2018-10-30 09:27:12
Writing application         : v28.2.0 ('The Awakening') 64-bit
Writing library             : libebml v1.3.6 + v1.4.9
Cover                       : Yes
Comment                     : https://www.imdb.com/title/tt3892172/
Attachments                 : cover.jpg
DIRECTOR                    : Дебра Ґранік / Debra Granik
GENRE                       : драма
SYNOPSIS                    : Вілл і Том - батько і дочка, які живуть в лісопарку, добровільно ізолювавши себе від суспільства. Вілл - ветеран, що страждає на ПТСР, вважає, що краще пити дощову воду і харчуватися дарами природи, лише іноді відвідуючи місто, ніж жити серед людей. Але за законом бездомним бути дозволяється, а ось жити на громадській землі - ні. Після того, як рейнджери і соц.працівники виявляють нелегальних робінзонів, Віллу та Том доводиться залишити парк. Дівчина має обирати між батьком-відлюдником та можливістю жити у суспільстві...
Url                         : https://toloka.to/t96100

Video
ID                          : 1
Format                      : AVC
Format/Info                 : Advanced Video Codec
Format profile              : [email protected]
Format settings             : CABAC / 9 Ref Frames
Format settings, CABAC      : Yes
Format settings, ReFrames   : 9 frames
Codec ID                    : V_MPEG4/ISO/AVC
Duration                    : 1 h 49 min
Bit rate                    : 6 253 kb/s
Width                       : 1 280 pixels
Height                      : 692 pixels
Display aspect ratio        : 1.85:1
Frame rate mode             : Constant
Frame rate                  : 23.976 (24000/1001) FPS
Color space                 : YUV
Chroma subsampling          : 4:2:0
Bit depth                   : 8 bits
Scan type                   : Progressive
Bits/(Pixel*Frame)          : 0.294
Stream size                 : 4.77 GiB (91%)
Title                       : Не залишай слідів / Leave No Trace (2018) 720p [DON]
Writing library             : core 157 r2935 545de2f
Encoding settings           : cabac=1 / ref=9 / deblock=1:-3:-3 / analyse=0x3:0x133 / me=umh / subme=10 / psy=1 / psy_rd=0.95:0.00 / mixed_ref=1 / me_range=32 / chroma_me=1 / trellis=2 / 8x8dct=1 / cqm=0 / deadzone=21,11 / fast_pskip=0 / chroma_qp_offset=-2 / threads=12 / lookahead_threads=2 / sliced_threads=0 / nr=0 / decimate=0 / interlaced=0 / bluray_compat=0 / constrained_intra=0 / bframes=9 / b_pyramid=2 / b_adapt=2 / b_bias=0 / direct=3 / weightb=1 / open_gop=0 / weightp=2 / keyint=240 / keyint_min=23 / scenecut=40 / intra_refresh=0 / rc_lookahead=40 / rc=crf / mbtree=0 / crf=15.8 / qcomp=0.60 / qpmin=0 / qpmax=69 / qpstep=4 / vbv_maxrate=62500 / vbv_bufsize=78125 / crf_max=0.0 / nal_hrd=none / filler=0 / ip_ratio=1.40 / pb_ratio=1.30 / aq=3:0.80
Language                    : English
Default                     : Yes
Forced                      : No

Audio
ID                          : 2
Format                      : AC-3
Format/Info                 : Audio Coding 3
Commercial name             : Dolby Digital
Codec ID                    : A_AC3
Duration                    : 1 h 49 min
Bit rate mode               : Constant
Bit rate                    : 640 kb/s
Channel(s)                  : 6 channels
Channel layout              : L R C LFE Ls Rs
Sampling rate               : 48.0 kHz
Frame rate                  : 31.250 FPS (1536 SPF)
Bit depth                   : 16 bits
Compression mode            : Lossy
Stream size                 : 500 MiB (9%)
Title                       : Original, 5.1 640 Kbps
Language                    : English
Service kind                : Complete Main
Default                     : Yes
Forced                      : No

Text #1
ID                          : 3
Format                      : UTF-8
Codec ID                    : S_TEXT/UTF8
Codec ID/Info               : UTF-8 Plain Text
Duration                    : 1 h 46 min
Bit rate                    : 49 b/s
Count of elements           : 775
Stream size                 : 38.4 KiB (0%)
Title                       : Ukr full [iTunes]
Language                    : Ukrainian
Default                     : Yes
Forced                      : Yes

Text #2
ID                          : 4
Format                      : UTF-8
Codec ID                    : S_TEXT/UTF8
Codec ID/Info               : UTF-8 Plain Text
Duration                    : 1 h 39 min
Bit rate                    : 32 b/s
Count of elements           : 816
Stream size                 : 23.8 KiB (0%)
Title                       : Eng full
Language                    : English
Default                     : No
Forced                      : No

Text #3
ID                          : 5
Format                      : UTF-8
Codec ID                    : S_TEXT/UTF8
Codec ID/Info               : UTF-8 Plain Text
Duration                    : 1 h 48 min
Bit rate                    : 34 b/s
Count of elements           : 968
Stream size                 : 27.6 KiB (0%)
Title                       : Eng SDH
Language                    : English
Default                     : No
Forced                      : No

Menu
00:00:00.000                : :00:00:00.000
00:06:03.863                : :00:06:03.863
00:12:19.113                : :00:12:19.113
00:17:38.975                : :00:17:38.975
00:24:16.080                : :00:24:16.080
00:31:44.569                : :00:31:44.569
00:37:35.879                : :00:37:35.879
00:43:43.663                : :00:43:43.663
00:46:33.624                : :00:46:33.624
00:51:24.498                : :00:51:24.498
00:58:27.212                : :00:58:27.212
01:02:13.605                : :01:02:13.605
01:07:40.056                : :01:07:40.056
01:11:50.348                : :01:11:50.348
01:17:27.685                : :01:17:27.685
01:22:42.875                : :01:22:42.875
01:28:44.486                : :01:28:44.486
01:34:25.869                : :01:34:25.869
01:36:38.543                : :01:36:38.543
01:43:32.206                : :01:43:32.206
Ще скріншоти:


Джерело: &
* фільм не був в українському прокаті


 Трекер:    Зареєстрований   

Завантажити / скачати фільм українською



відео для новачків



 Зареєстрований:   2018-10-30 12:07
 Розмір:   5.26 GB 
 Оцінка фільму:   9.7/10 (Голосів: 10)
 ЗАЛИШАЙТЕСЬ ЯКОМОГА ДОВШЕ НА РОЗДАЧІ! ЗАВАНТАЖИВ САМ - ДАЙ ЗАВАНТАЖИТИ ІНШИМ!
   
Інші релізи
Valdemar038 
Частий відвідувач


З нами з: 07.12.16
Востаннє: 13.12.18
Повідомлень: 34

2018-11-11 15:11  
Гротеск.
coldmen 
Новенький


З нами з: 13.12.13
Востаннє: 12.11.18
Повідомлень: 4

2018-11-12 15:48  
Дивився сьогодні онлайн на одному з сайтів......

іііііі, на жаль мені зрозуміла поведінка героя фільму....адаптуватися дуже важко

chanis 
Частий відвідувач


З нами з: 21.12.15
Востаннє: 12.12.18
Повідомлень: 39

2018-12-06 17:58  
Надзвичайно гарний фільм.12 /12.Дякую усім хто працював над тим щоб ми могли його подивитись.Те що цей фільм лише з субтитрами-навіть краще.Варто б подивитися усім,щоб хоч трохи мати уявлення про те, який стрес іноді переживають ті хто перебували у зоні військових дій.
Ваш часовий пояс: GMT + 2 Години

Нова тема   Відповісти