Величні Медичі (Сезон 2) / Medici: The Magnificent (Season 2) (2018) 720p Ukr/Eng

Нові коментарі

Нова тема   Відповісти
Автор Повідомлення
DniproFilm 
VIP


З нами з: 10.10.18
Востаннє: 17.08.19
Повідомлень: 258

2018-10-29 21:06  
Величні Медичі (Сезон 2) / Medici: Masters of Florence / Medici: The Magnificent (Season 2) (2018) 720p Ukr/Eng

Величні Медичі (Сезон 2) / Medici: The Magnificent (Season 2) (2018) 720p Ukr/Eng


Жанр: історія, драма, трилер
Країна: Велика Британія, Італія



Кінокомпанія / телеканал: Big Light Productions, Lux Vide S.p.a., Wild Bunch, Wild Bunch TV
Режисер: Серджо Міміка-Геззан
Актори/ролі озвучують: Дастін Хоффман, Гвідо Капріно, Джорджо Капуто, Річард Медден, Стюарт Мартін, Tatjana Nardone, Анабель Шолей, Валентина Беллі, Кен Бонс, Алессандро Спердуті та інші

Сюжет:
Історія знає чимало прикладів родин, чий вплив вплинув на долі цілих народів. Однією з наймогутніших була династія Медічі з Флоренції. Все починалося з простої торгівлі. Але поступово члени сім'ї набували все більшого впливу і влади. Причому вплив цього клану поширювався у всіх сферах: починаючи від економічної і закінчуючи релігійною. В ході становлення своєї переваги Медічі часто дивилися крізь пальці на загальноприйняті людські цінності і моральні принципи, чим заслужили гнів оточуючих...


Тривалість: 1 серія: ~ 60 хв. (цілком серій: 8)
Перелік серій

1. Old Scores
2. Standing Alone
3. Obstacles and Opportunities
4. Blood with Blood
5. Ties That Bind
6. Alliance
7. Betrayal
8. Mass
Якість:
Відео:
кодек:
розмір кадру: 1280x640
бітрейт: ~4000 кб/с

Аудіо # 1:
мова: українська
переклад: багатоголосий закадровий
кодек: 2.0
бітрейт: 192 кб/с

Аудіо # 2:
мова: англійська
переклад: оригінал
кодек: 2.0
бітрейт: 384 кб/с

Джерело озвучення:
DniproFilm
Info

Video
ID : 1
Format : AVC
Format/Info : Advanced Video Codec
Format profile : [email protected]
Format settings : CABAC / 4 Ref Frames
Format settings, CABAC : Yes
Format settings, ReFrames : 4 frames
Codec ID : V_MPEG4/ISO/AVC
Duration : 56 min 1 s
Bit rate : 3 959 kb/s
Width : 1 280 pixels
Height : 640 pixels
Display aspect ratio : 2.000
Frame rate mode : Constant
Frame rate : 25.000 FPS
Standard : PAL
Color space : YUV
Chroma subsampling : 4:2:0
Bit depth : 8 bits
Scan type : Progressive
Bits/(Pixel*Frame) : 0.193
Stream size : 1.55 GiB (87%)
Language : English
Default : Yes
Forced : No
Color range : Limited
Color primaries : BT.709
Transfer characteristics : BT.709
Matrix coefficients : BT.709

Audio #1
ID : 2
Format : AC-3
Format/Info : Audio Coding 3
Commercial name : Dolby Digital
Codec ID : A_AC3
Duration : 56 min 1 s
Bit rate mode : Constant
Bit rate : 192 kb/s
Channel(s) : 2 channels
Channel positions : Front: L R
Sampling rate : 48.0 kHz
Frame rate : 31.250 FPS (1536 SPF)
Bit depth : 16 bits
Compression mode : Lossy
Stream size : 76.9 MiB (4%)
Title : DniproFilm
Language : Ukrainian
Service kind : Complete Main
Default : Yes
Forced : No

Audio #2
ID : 3
Format : AC-3
Format/Info : Audio Coding 3
Codec ID : A_AC3
Duration : 55 min 30 s
Bit rate : 384 kb/s
Channel(s) : 2 channels
Sampling rate : 48.0 kHz
Frame rate : 31.250 FPS (1536 SPF)
Compression mode : Lossy
Stream size : 152 MiB (8%)
Language : English
Default : No
Forced : No
Скріншоти


Увага, присутня відео та аудіореклама.


Джерело: DniproFilm


Авторський реліз (завантажувати можна без реєстрації)
 Трекер:    Зареєстрований   

Завантажити / скачати серіал українською



відео для новачків



 Зареєстрований:   2018-11-27 23:49
 Розмір:   14.2 GB 
 Оцінка серіалу:   10/10 (Голосів: 5)
   
11FrYkT 
Модератор відео


З нами з: 20.02.11
Востаннє: 19.08.19
Повідомлень: 6133

2018-10-30 10:53  
DniproFilm написано:

Аудіо # 2:
мова: англійська
переклад: оригінал
кодек: 2.0
бітрейт: 384 кб/с


згідно медіаінфо немає

sergiyko.5 
VIP


З нами з: 25.02.16
Востаннє: 19.08.19
Повідомлень: 2440

2018-10-30 11:21  
11FrYkT
Мабуть медіаінфо прописане не повністю.

11FrYkT 
Модератор відео


З нами з: 20.02.11
Востаннє: 19.08.19
Повідомлень: 6133

2018-10-30 11:55  
sergiyko.5 написано:
Мабуть медіаінфо прописане не повністю.

можливо і скоріш за все, тоді його замінити

DniproFilm 
VIP


З нами з: 10.10.18
Востаннє: 17.08.19
Повідомлень: 258

2018-10-30 20:19  
11FrYkT
Вже зроблено.

DniproFilm 
VIP


З нами з: 10.10.18
Востаннє: 17.08.19
Повідомлень: 258

2018-11-08 20:40  
УВАГА! РЕЛІЗ ОНОВЛЕНО! (08.11.2018). ДОДАНА 3 СЕРІЯ

DniproFilm 
VIP


З нами з: 10.10.18
Востаннє: 17.08.19
Повідомлень: 258

2018-11-11 19:48  
(11.11.2018) ДОДАНА 4 СЕРІЯ

zed 
Відео Гуртом - дизайнер
Відео Гуртом - дизайнер


З нами з: 10.12.13
Востаннє: 19.08.19
Повідомлень: 300

2018-11-11 20:07  
del
DniproFilm 
VIP


З нами з: 10.10.18
Востаннє: 17.08.19
Повідомлень: 258

2018-11-15 15:10  
УВАГА! РЕЛІЗ ОНОВЛЕНО! (15.11.2018). ДОДАНО 5-6 СЕРІЇ!

DniproFilm 
VIP


З нами з: 10.10.18
Востаннє: 17.08.19
Повідомлень: 258

2018-11-27 23:51  
УВАГА! РЕЛІЗ ОНОВЛЕНО! (27.11.2018). ДОДАНО 7-8 СЕРІЇ (фінал сезону).

casper101 
VIP


З нами з: 03.12.09
Востаннє: 19.08.19
Повідомлень: 420

2018-11-28 01:00  
а як що до першого сезону?
Ваш часовий пояс: GMT + 2 Години

Нова тема   Відповісти