Величні Медичі (Сезон 2, серії 1-4) / Medici: The Magnificent (Season 2, episodes 1-4) (2018)

Нові коментарі

Нова тема   Відповісти
Автор Повідомлення
DniproFilm 
Частий відвідувач


З нами з: 10.10.18
Востаннє: 13.11.18
Повідомлень: 40

2018-10-29 20:06  
Величні Медичі (Сезон 2, серії 1-4) / Medici: Masters of Florence / Medici: The Magnificent (Season 2, episodes 1-4) (2018)

Величні Медичі (Сезон 2, серії 1-4) / Medici: The Magnificent (Season 2, episodes 1-4) (2018)


Жанр: історія, драма, трилер
Країна: Велика Британія, Італія



Кінокомпанія / телеканал: Big Light Productions, Lux Vide S.p.a., Wild Bunch, Wild Bunch TV
Режисер: Серджо Міміка-Геззан
Актори/ролі озвучують: Дастін Хоффман, Гвідо Капріно, Джорджо Капуто, Річард Медден, Стюарт Мартін, Tatjana Nardone, Анабель Шолей, Валентина Беллі, Кен Бонс, Алессандро Спердуті та інші

Сюжет:
Історія знає чимало прикладів родин, чий вплив вплинув на долі цілих народів. Однією з наймогутніших була династія Медічі з Флоренції. Все починалося з простої торгівлі. Але поступово члени сім'ї набували все більшого впливу і влади. Причому вплив цього клану поширювався у всіх сферах: починаючи від економічної і закінчуючи релігійною. В ході становлення своєї переваги Медічі часто дивилися крізь пальці на загальноприйняті людські цінності і моральні принципи, чим заслужили гнів оточуючих...


Тривалість: 1 серія: ~ 60 хв. (цілком серій: 8)
Перелік серій

1. Old Scores
2. Standing Alone
3. Obstacles and Opportunities
4. Blood with Blood
Якість:
Відео:
кодек:
розмір кадру: 720x360
бітрейт: ~1800 кб/с

Аудіо # 1:
мова: українська
переклад: багатоголосий закадровий
кодек: 2.0
бітрейт: 192 кб/с

Джерело озвучення:
DniproFilm
Info

Video
ID : 0
Format : MPEG-4 Visual
Format profile : Advanced [email protected]
Format settings : BVOP2
Format settings, BVOP : 2
Format settings, QPel : No
Format settings, GMC : No warppoints
Format settings, Matrix : Default (H.263)
Muxing mode : Packed bitstream
Codec ID :
Codec ID/Hint :
Duration : 56 min 1 s
Bit rate : 1 791 kb/s
Width : 720 pixels
Height : 360 pixels
Display aspect ratio : 2.000
Frame rate : 25.000 FPS
Color space : YUV
Chroma subsampling : 4:2:0
Bit depth : 8 bits
Scan type : Progressive
Compression mode : Lossy
Bits/(Pixel*Frame) : 0.276
Stream size : 717 MiB (90%)
Writing library : 67

Audio
ID : 1
Format : AC-3
Format/Info : Audio Coding 3
Commercial name : Dolby Digital
Codec ID : 2000
Duration : 56 min 0 s
Bit rate mode : Constant
Bit rate : 192 kb/s
Channel(s) : 2 channels
Channel positions : Front: L R
Sampling rate : 48.0 kHz
Frame rate : 31.250 FPS (1536 SPF)
Bit depth : 16 bits
Compression mode : Lossy
Stream size : 76.9 MiB (10%)
Alignment : Aligned on interleaves
Interleave, duration : 40 ms (1.00 video frame)
Interleave, preload duratio : 512 ms
Service kind : Complete Main
Скріншоти


Увага, присутня відео та аудіореклама.

Додана 4 серія.


Джерело: DniproFilm


Авторський реліз (завантажувати можна без реєстрації)
 Трекер:    Зареєстрований   

Завантажити / скачати серіал українською



відео для новачків



 Зареєстрований:   2018-11-11 18:42
 Розмір:   3.07 GB 
 Оцінка серіалу:   9.4/10 (Голосів: 8)
   
redcit 
VIP


З нами з: 21.12.10
Востаннє: 14.11.18
Повідомлень: 541

2018-10-29 23:39  
Чому ви завжди беретеся за переклад серіалів перших сезонів яких нема на Гуртом? Хто буде заморочувати і шукати перші сезони де-інде, аби подивитися ваш реліз?
Bezverh 
Новенький


З нами з: 04.09.18
Востаннє: 13.11.18
Повідомлень: 19

2018-10-31 12:40  
погоджуюсь с попереднім коментарем )
an-isa 
Частий відвідувач


З нами з: 18.02.13
Востаннє: 11.11.18
Повідомлень: 33

2018-11-02 21:07  
Ці два сезони можна дивитися окремо (хоча мені також шкода, що попереднього не знайшла українською).
У першому сезоні йдеться про початки династії банкірів. Брати Лоренцо й Козімо долають підступи ворогів і переживають складність вибору між коханням та обов'язком, а також тягар власних амбіцій. У кожній серії є свій майстерно розплутаний вузол. Наскрізна інтрига тримається на тому, хто ж і за що вбив їхнього батька Джованні Медічі (1360—1429), засновника банку.
У другому сезоні інші два брати (внуки Козімо) - і так само старший в центрі, інший в тіні - намагаються зберегти і примножити спадщину: не так багатство, як становище володарів Флоренції, які визначають її обличчя для майбутніх поколінь.
Серіал динамічний, цікавий і в любовній (місцями еротичній), і в історичній (політичній та бізнесовій) складових, вистачає несподіваних поворотів і впізнавань. Колорит епохи непогано відтворений. Може, є невелика доза мелодраматизму в розмежуванні совісних "своїх" і безпринципних лиходіїв, але наявна також складова трагічної провини, що додає героям глибини.

Однак переклад розчаровує: калькований із російської.

Ilia 
Новенький


З нами з: 01.08.14
Востаннє: 13.11.18
Повідомлень: 2

2018-11-03 18:25  
Надіюсь інші серії другого сезону теж будуть ?
DniproFilm 
Частий відвідувач


З нами з: 10.10.18
Востаннє: 13.11.18
Повідомлень: 40

2018-11-08 19:40  
УВАГА! РЕЛІЗ ОНОВЛЕНО! (08.11.2018). ДОДАНА 3 СЕРІЯ

DniproFilm 
Частий відвідувач


З нами з: 10.10.18
Востаннє: 13.11.18
Повідомлень: 40

2018-11-11 18:48  
РЕЛІЗ ОНОВЛЕНО! (11.11.2018). ДОДАНА 4 СЕРІЯ

Ваш часовий пояс: GMT + 2 Години

Нова тема   Відповісти