Доктор Хто (Сезон 11, серії 1-6 з 11) / Doctor Who (Season 11) (2018) Remux 1080i Ukr/Eng

Нові коментарі

Нова тема   Відповісти
Автор Повідомлення
BaibaKoTV 
Частий відвідувач


З нами з: 01.12.16
Востаннє: 04.08.19
Повідомлень: 28

2018-10-29 19:00  
Доктор Хто (Сезон 11, серії 1-6 з 11) / Doctor Who (Season 11) (2018) Remux 1080i Ukr/Eng


Підтримати озвучення:
Посилання на реквізити прибрано до уточнення ситуації з боку "Червоного ліхтаря", (прим. igor911)


Доктор Хто (Сезон 11, серії 1-6 з 11) / Doctor Who (Season 11) (2018) Remux 1080i Ukr/Eng


Жанр: пригодницький, драма, сімейний
Країна: Велика Британія



Кінокомпанія: BBC
Режисер: Автор сценарію: Кріс Чібнолл
Актори: Джоді Віттакер, Мандіп Гілл, Тозін Коул, Бредлі Волш та інші

Сюжет:
У південному Йоркширі життя Раяна Синклера, Ясмін Кан та Грема О'Браяна зовсім скоро зміняться назавжди, коли таємнича жінка, нездатна згадати власне ім'я, впаде з нічного неба. Чи можуть вони вірити хоч слову з того, що вона каже? І чи може вона допомогти розібратися з дивними подіями, що відбуваються по всьому місту?


Тривалість: 1 серія: ~ 50:00 (цілком серій: 6 з 11)
Перелік серій
1. Жінка, яка впала на Землю /The Woman Who Fell to Earth
2. Примарний монумент /The Ghost Monument
3. Роза /Rosa
4. Павукоподібні в Об'єднаному королівстві /Arachnids in the UK
5. Головоломка Цуранґа /The Tsuranga Conundrum
6. Демони Пенджабу /Demons of the Punjab
Якість: Remux 1080i
Відео:
кодек:
розмір кадру: 1920x1080
бітрейт: ~25 Мб/с

Аудіо # 1:
мова: українська
переклад: багатоголосий закадровий | BaibaKoTV
кодек: -HD MA 5.1
бітрейт: 2048 кб/с

Аудіо # 2:
мова: англійська
переклад: оригінал
кодек: -HD MA 5.1
бітрейт: 1920 кб/с

Аудіо # 3:
мова: українська
переклад: багатоголосий закадровий | BaibaKoTV
кодек: 5.1
бітрейт: 512 кб/с

Info
Format :
Format version : Version 4 / Version 2
File size : 10.3 GiB
Duration : 48 min 51 s
Overall bit rate mode : Variable
Overall bit rate : 30.3 Mb/s
Movie name : Doctor Who - S11E02 - The Ghost Monument
Track name/Position : 2
Track name/Total : 10
Encoded date : UTC 2019-02-07 18:32:46
Writing application : v30.1.0 ('Forever And More') 64-bit
Writing library : libebml v1.3.6 + v1.4.9
IMDB : tt7558994
TMDB : tv/57243
TVDB : 78804

Video
ID : 1
Format : AVC
Format/Info : Advanced Video Codec
Format profile : [email protected]
Format settings : CABAC / 4 Ref Frames
Format settings, CABAC : Yes
Format settings, RefFrames : 4 frames
Codec ID : V_MPEG4/ISO/AVC
Duration : 48 min 51 s
Bit rate mode : Variable
Bit rate : 25.9 Mb/s
Maximum bit rate : 33.0 Mb/s
Width : 1 920 pixels
Height : 1 080 pixels
Display aspect ratio : 16:9
Frame rate mode : Constant
Frame rate : 25.000 FPS
Color space : YUV
Chroma subsampling : 4:2:0
Bit depth : 8 bits
Scan type : MBAFF
Scan type, store method : Interleaved fields
Scan order : Top Field First
Bits/(Pixel*Frame) : 0.499
Stream size : 8.82 GiB (85%)
Language : English
Default : Yes
Forced : No

Audio #1
ID : 2
Format :
Format/Info : Digital Theater Systems
Format profile : MA / Core
Codec ID : A_DTS
Duration : 48 min 51 s
Bit rate mode : Variable / Constant
Bit rate : 2 048 kb/s / 1 509 kb/s
Channel(s) : 6 channels
Channel positions : Front: L C R, Side: L R, LFE
Sampling rate : 48.0 kHz
Frame rate : 93.750 FPS (512 SPF)
Bit depth : 16 bits
Compression mode : Lossless / Lossy
Stream size : 710 MiB (7%)
Language : Ukrainian
Default : Yes
Forced : No

Audio #2
ID : 3
Format :
Format/Info : Digital Theater Systems
Format profile : MA / Core
Codec ID : A_DTS
Duration : 48 min 51 s
Bit rate mode : Variable / Constant
Bit rate : 1 920 kb/s / 1 509 kb/s
Channel(s) : 6 channels
Channel positions : Front: L C R, Side: L R, LFE
Sampling rate : 48.0 kHz
Frame rate : 93.750 FPS (512 SPF)
Bit depth : 16 bits
Compression mode : Lossless / Lossy
Stream size : 683 MiB (6%)
Language : English
Default : No
Forced : No

Audio #3
ID : 4
Format :
Format/Info : Advanced Audio Codec
Format profile : LC
Codec ID : A_AAC-2
Duration : 48 min 51 s
Bit rate : 448 kb/s
Channel(s) : 6 channels
Channel positions : Front: L C R, Side: L R, LFE
Sampling rate : 48.0 kHz
Frame rate : 46.875 FPS (1024 SPF)
Compression mode : Lossy
Stream size : 156 MiB (1%)
Language : Ukrainian
Default : No
Forced : No

Menu
00:00:00.000 : en:Chapter 1
00:00:36.480 : en:Chapter 2
00:05:07.000 : en:Chapter 3
00:10:38.920 : en:Chapter 4
00:17:03.760 : en:Chapter 5
00:20:33.840 : en:Chapter 6
00:24:52.440 : en:Chapter 7
00:31:04.280 : en:Chapter 8
00:38:35.560 : en:Chapter 9
00:40:51.520 : en:Chapter 10
00:45:50.600 : en:Chapter 11
00:48:05.000 : en:Chapter 12
Скріншоти


Авторський реліз (завантажувати можна без реєстрації)
 Трекер:    Зареєстрований   

Завантажити / скачати серіал українською



відео для новачків



 Зареєстрований:   2019-06-30 23:11
 Розмір:   68.06 GB 
 Оцінка серіалу:   9/10 (Голосів: 9)
   
88mmc88 
Свій


З нами з: 21.12.09
Востаннє: 21.08.19
Повідомлень: 88

2018-12-15 16:37  
А продовження буде? Дякую.
Курваро 
Частий відвідувач


З нами з: 09.08.17
Востаннє: 12.08.19
Повідомлень: 30

2019-01-12 23:11  
Це вже не шлак.
Це значно більше.
Це ''ліберальний'' шлак.

Seriy100293 
VIP


З нами з: 17.08.11
Востаннє: 21.08.19
Повідомлень: 460

2019-02-04 23:23  
Оновіть торрент - третю та четверту серії озвучено.
leicheman 
Відео Гуртом - підтримка та поширення
Відео Гуртом - підтримка та поширення


З нами з: 03.07.14
Востаннє: 22.08.19
Повідомлень: 3901

2019-02-08 11:54  
Було б не погано почути про поточний стан справ з озвученням.
Чи є зв'язок з Ліхтарями чи є ще там якісь кошти на наступні серії і т.ін

igor911 
Модератор відео


З нами з: 18.01.08
Востаннє: 21.08.19
Повідомлень: 13143

2019-02-10 10:16  
Прибрав посилання на реквізити до уточнення ситуації щодо зібраних коштів з боку "Червоного ліхтаря"
BaibaKoTV 
Частий відвідувач


З нами з: 01.12.16
Востаннє: 04.08.19
Повідомлень: 28

2019-06-25 02:04  
Додано 5-ту серію!

Dark Invader 
Модератор відео


З нами з: 06.01.11
Востаннє: 22.08.19
Повідомлень: 2711

2019-06-25 02:34  
BaibaKoTV
Ще будуть серії?

BaibaKoTV 
Частий відвідувач


З нами з: 01.12.16
Востаннє: 04.08.19
Повідомлень: 28

2019-06-25 03:38  
Dark Invader

6-та в роботі

Seriy100293 
VIP


З нами з: 17.08.11
Востаннє: 21.08.19
Повідомлень: 460

2019-06-25 09:48  
Та ви що!
Seriy100293 
VIP


З нами з: 17.08.11
Востаннє: 21.08.19
Повідомлень: 460

2019-06-27 22:12  
BaibaKoTV
А над «Часом Доктора» йде робота?

BaibaKoTV 
Частий відвідувач


З нами з: 01.12.16
Востаннє: 04.08.19
Повідомлень: 28

2019-06-30 23:48  
Seriy100293

Так

Додано через 1 хвилину 30 секунд:

Додано 6-ту серію!

Dark Invader 
Модератор відео


З нами з: 06.01.11
Востаннє: 22.08.19
Повідомлень: 2711

2019-06-30 23:52  
BaibaKoTV
Як там справи з подальшими серіями сезону? Збір коштів ще триває чи ні?

Бо від "Чарівного Ліхтаря" ніякої інформації на рахунок цього немає.

BaibaKoTV 
Частий відвідувач


З нами з: 01.12.16
Востаннє: 04.08.19
Повідомлень: 28

2019-08-04 23:06  
Dark Invader

Нам ліхтар теж стосовно продовження інформації не надав.

Ваш часовий пояс: GMT + 2 Години

Нова тема   Відповісти