500 днів літа / (500) Days of Summer (2009) 1080p H.265 2xUkr/Eng | Sub Ukr/Eng

Нові коментарі

Нова тема   Відповісти
Автор Повідомлення
Anonymous 







2018-10-29 11:29  
500 днів літа / (500) Days of Summer (2009) 1080p H.265 2xUkr/Eng | Sub Ukr/Eng

500 днів літа / (500) Days of Summer (2009) 1080p H.265 2xUkr/Eng | Sub Ukr/Eng

Жанр: комедія, драма, романтичний
Країна: США



Кінокомпанія: Fox Searchlight Pictures, Watermark, Dune Entertainment III
Режисер: Марк Веб
Актори: Джозеф Ґордон-Левіт, Зої Дешанель, Джефрі Аренд, Хлоя Ґрейс Морец, Метью Ґрей Ґаблер, Кларк Ґреґґ, Патріція Белчер, Рейчел Бостон, Мінка Келі, Чарльз Волкер

Сюжет:
Головний герой працює в агентстві, що випускає вітальні листівки. Він закохується в свою колегу і вирішує, що вона - «та, єдина». Але 500 днів їх відносин показують героєві, що шлях до щастя непередбачуваний, неконтрольований і неймовірно кумедний!


Тривалість: 01:35:04
Якість: (Власний Rip)
Відео:
кодек: H.265 (HEVC)
розмір кадру: 1920 х 800
бітрейт: 6 853 кб/с
бітова глибина: 10 біт
Увага! Перед завантаженням переконайтесь, що ваш пристрій відтворення (та/або ПЗ) підтримує H.265 (HEVC)

Аудіо # 1:
мова: українська
переклад: багатоголосий закадровий
кодек: 2.0
бітрейт: 192 кб/с

Аудіо # 2:
мова: українська
переклад: любительський багатоголосий закадровий | Hurtom
кодек: 5.1
бітрейт: 384 кб/с

Аудіо # 3:
мова: англійська
переклад: оригінал
кодек: 5.1
бітрейт: 640 кб/с

Субтитри # 1-2:
мова: українська (Forced (На пісні), Full)
тип: програмні (м'які)
формат: *.srt

Субтитри # 3:
мова: англійська (Full)
тип: програмні (м'які)
формат: *.srt


Info
Код:
General
Unique ID                                : 202067669672086735394176602535853339808 (0x9804D14D03C78F021AF811C83B40B4A0)
Complete name                            : F:\Video\500 Days of Summer (2009) 1080p H.265 [2xUKR_ENG].
Format                                   :
Format version                           : Version 4 / Version 2
File size                                : 5.36 GiB
Duration                                 : 1 h 35 min
Overall bit rate                         : 8 072 kb/s
Movie name                               : 500 Days of Summer (2009) - Encoded by -Star-Lord-
Encoded date                             : UTC 2018-10-28 20:22:29
Writing application                      : v20.0.0 ('I Am The Sun') 32-bit
Writing library                          : libebml v1.3.5 + v1.4.8
Cover                                    : Yes
Attachments                              : Cover.jpg

Video
ID                                       : 1
Format                                   : HEVC
Format/Info                              : High Efficiency Video Coding
Format profile                           : Main [email protected]@High
Codec ID                                 : V_MPEGH/ISO/HEVC
Duration                                 : 1 h 35 min
Bit rate                                 : 6 853 kb/s
Width                                    : 1 920 pixels
Height                                   : 800 pixels
Display aspect ratio                     : 2.40:1
Frame rate mode                          : Constant
Frame rate                               : 23.976 (24000/1001) FPS
Color space                              : YUV
Chroma subsampling                       : 4:2:0
Bit depth                                : 10 bits
Bits/(Pixel*Frame)                       : 0.186
Stream size                              : 4.55 GiB (85%)
Title                                    : Encoded by -Star-Lord-
Writing library                          : x265 2.8+74-fd517ae68f93:[Windows][GCC 7.3.0][64 bit] 10bit
Encoding settings                        : cpuid=1111039 / frame-threads=5 / numa-pools=4 / wpp / no-pmode / no-pme / no-psnr / no-ssim / log-level=3 / input-csp=1 / input-res=1920x800 / interlace=0 / total-frames=0 / level-idc=51 / high-tier=1 / uhd-bd=0 / ref=5 / allow-non-conformance / no-repeat-headers / annexb / no-aud / no-hrd / info / hash=0 / no-temporal-layers / open-gop / min-keyint=23 / keyint=250 / gop-lookahead=0 / bframes=8 / b-adapt=2 / b-pyramid / bframe-bias=0 / rc-lookahead=60 / lookahead-slices=5 / scenecut=40 / radl=0 / no-intra-refresh / ctu=64 / min-cu-size=8 / no-rect / no-amp / max-tu-size=32 / tu-inter-depth=2 / tu-intra-depth=2 / limit-tu=0 / rdoq-level=0 / dynamic-rd=0.00 / no-ssim-rd / signhide / no-tskip / nr-intra=0 / nr-inter=0 / no-constrained-intra / no-strong-intra-smoothing / max-merge=2 / limit-refs=3 / no-limit-modes / me=3 / subme=7 / merange=57 / temporal-mvp / weightp / weightb / no-analyze-src-pics / deblock=-3:-3 / no-sao / no-sao-non-deblock / rd=3 / no-early-skip / rskip / no-fast-intra / no-tskip-fast / no-cu-lossless / no-b-intra / no-splitrd-skip / rdpenalty=0 / psy-rd=2.00 / psy-rdoq=0.00 / no-rd-refine / no-lossless / cbqpoffs=0 / crqpoffs=0 / rc=crf / crf=18.5 / qcomp=0.65 / qpstep=1 / stats-write=0 / stats-read=0 / vbv-maxrate=50000 / vbv-bufsize=50000 / vbv-init=0.9 / crf-max=0.0 / crf-min=0.0 / ipratio=1.40 / pbratio=1.30 / aq-mode=1 / aq-strength=1.00 / cutree / zone-count=0 / no-strict-cbr / qg-size=32 / no-rc-grain / qpmax=69 / qpmin=0 / no-const-vbv / sar=1 / overscan=0 / videoformat=5 / range=0 / colorprim=1 / transfer=1 / colormatrix=1 / chromaloc=0 / display-window=0 / max-cll=0,0 / min-luma=0 / max-luma=1023 / log2-max-poc-lsb=8 / vui-timing-info / vui-hrd-info / slices=1 / no-opt-qp-pps / no-opt-ref-list-length-pps / no-multi-pass-opt-rps / scenecut-bias=0.05 / no-opt-cu-delta-qp / no-aq-motion / no-hdr / no-hdr-opt / no-dhdr10-opt / no-idr-recovery-sei / analysis-reuse-level=5 / scale-factor=0 / refine-intra=0 / refine-inter=0 / refine-mv=0 / no-limit-sao / ctu-info=0 / no-lowpass-dct / refine-mv-type=0 / copy-pic=1 / max-ausize-factor=1.0 / no-dynamic-refine / no-single-sei
Language                                 : English
Default                                  : Yes
Forced                                   : No
Color range                              : Limited
Color primaries                          : BT.709
Transfer characteristics                 : BT.709
Matrix coefficients                      : BT.709

Audio #1
ID                                       : 2
Format                                   : AC-3
Format/Info                              : Audio Coding 3
Codec ID                                 : A_AC3
Duration                                 : 1 h 35 min
Bit rate mode                            : Constant
Bit rate                                 : 192 kb/s
Channel(s)                               : 2 channels
Channel positions                        : Front: L R
Sampling rate                            : 48.0 kHz
Frame rate                               : 31.250 FPS (1536 SPF)
Bit depth                                : 16 bits
Compression mode                         : Lossy
Stream size                              : 131 MiB (2%)
Title                                    : 1+1
Language                                 : Ukrainian
Service kind                             : Complete Main
Default                                  : Yes
Forced                                   : Yes

Audio #2
ID                                       : 3
Format                                   : AC-3
Format/Info                              : Audio Coding 3
Codec ID                                 : A_AC3
Duration                                 : 1 h 35 min
Bit rate mode                            : Constant
Bit rate                                 : 384 kb/s
Channel(s)                               : 6 channels
Channel positions                        : Front: L C R, Side: L R, LFE
Sampling rate                            : 48.0 kHz
Frame rate                               : 31.250 FPS (1536 SPF)
Bit depth                                : 16 bits
Compression mode                         : Lossy
Stream size                              : 261 MiB (5%)
Title                                    : Hurtom
Language                                 : Ukrainian
Service kind                             : Complete Main
Default                                  : No
Forced                                   : No

Audio #3
ID                                       : 4
Format                                   : AC-3
Format/Info                              : Audio Coding 3
Codec ID                                 : A_AC3
Duration                                 : 1 h 35 min
Bit rate mode                            : Constant
Bit rate                                 : 640 kb/s
Channel(s)                               : 6 channels
Channel positions                        : Front: L C R, Side: L R, LFE
Sampling rate                            : 48.0 kHz
Frame rate                               : 31.250 FPS (1536 SPF)
Bit depth                                : 16 bits
Compression mode                         : Lossy
Stream size                              : 435 MiB (8%)
Title                                    : Original
Language                                 : English
Service kind                             : Complete Main
Default                                  : No
Forced                                   : No

Text #1
ID                                       : 5
Format                                   : UTF-8
Codec ID                                 : S_TEXT/UTF8
Codec ID/Info                            : UTF-8 Plain Text
Duration                                 : 42 min 42 s
Bit rate                                 : 4 b/s
Count of elements                        : 27
Stream size                              : 1.41 KiB (0%)
Title                                    : Forced (На пісні)
Language                                 : Ukrainian
Default                                  : Yes
Forced                                   : Yes

Text #2
ID                                       : 6
Format                                   : UTF-8
Codec ID                                 : S_TEXT/UTF8
Codec ID/Info                            : UTF-8 Plain Text
Duration                                 : 1 h 29 min
Bit rate                                 : 88 b/s
Count of elements                        : 1163
Stream size                              : 58.5 KiB (0%)
Title                                    : Full
Language                                 : Ukrainian
Default                                  : No
Forced                                   : No

Text #3
ID                                       : 7
Format                                   : UTF-8
Codec ID                                 : S_TEXT/UTF8
Codec ID/Info                            : UTF-8 Plain Text
Duration                                 : 1 h 32 min
Bit rate                                 : 64 b/s
Count of elements                        : 1321
Stream size                              : 43.6 KiB (0%)
Title                                    : Full
Language                                 : English
Default                                  : No
Forced                                   : No

Menu
00:00:00.000                             : en:Main Titles/ the One
00:03:57.779                             : en:Consoling Tom
00:07:05.425                             : en:Rare Quality
00:09:19.183                             : en:Early Days
00:13:34.146                             : en:Officially in Love
00:14:22.319                             : en:High and Low
00:16:53.429                             : en:Office Karaoke
00:19:18.699                             : en:Agree to Disagree
00:24:29.926                             : en:Progress Report
00:27:00.285                             : en:Shopping
00:30:39.754                             : en:Keeping It Casual
00:33:27.422                             : en:Just Having Fun
00:35:33.506                             : en:Lock Up
00:38:14.375                             : en:Summer's World
00:43:46.874                             : en:Defining Moment
00:52:24.140                             : en:Suffering
00:56:47.153                             : en:Second Opinion
01:00:26.039                             : en:Chance Encounter
01:06:24.730                             : en:Expectations/Reality
01:10:49.787                             : en:The Cynic
01:15:15.052                             : en:Not the One
01:19:00.777                             : en:Fresh Start
01:21:22.919                             : en:I Just Knew
01:27:08.556                             : en:First Day of Autumn/End Titles
01:35:04.323                             : en:01:35:04.323
Скріншоти




Джерело:
Особиста оцінка: 10 - без зайвих вагань рекомендую всім!




Авторський реліз (завантажувати можна без реєстрації)
 Трекер:    Зареєстрований   

Завантажити / скачати фільм українською



відео для новачків



 Зареєстрований:   2018-10-29 11:29
 Розмір:   5.36 GB 
 Оцінка фільму:   7.8/10 (Голосів: 4)
   
Ваш часовий пояс: GMT + 2 Години

Нова тема   Відповісти