Формула 1. Сезон 2018. Етап 19. Гран-Прі Мексики. Гонка (28.10.2018) IPTV 1080p

Нові коментарі

Нова тема   Відповісти
Останній раз роздавалося VIT5330 (2020-03-07)
Автор Повідомлення
sergiyko.5 
VIP


З нами з: 25.02.16
Востаннє: 26.10.20
Повідомлень: 3618

2018-10-29 00:39  
Формула 1. Сезон 2018. Етап 19. Гран-Прі Мексики. Гонка (28.10.2018) IPTV 1080p


Формула 1. Сезон 2018. Етап 19. Гран-Прі Мексики. Гонка (28.10.2018) IPTV 1080p

Жанр: Перегони Формула 1
Країна: Мексика
Телеканал: Перший автомобільний
Коментатор: Максим Подзігун

Опис:
Гонка дев'ятнадцятого етапу Гран-Прі Мексики 2018 року відбулась 28 жовтня 2018 року о 21 годині за київським часом.


Тривалість: 02:11:47
Якість: IPTV

Відео: кодек: розмір кадру: 1920 х 1080 бітрейт: 6000 кб/с частота кадрів: 50 кад/с
Аудіо: мова: українська кодек: 2.0 бітрейт: 128 кб/с
Про файл:
General
Complete name : G:\Torrents2\SPORT\Formula 1\F1.2018.Race\F1.2018.19.Mexico.Race.1080p.IPTV.Ukr.mp4
Format : MPEG-4
Format profile : Base Media
Codec ID : isom (isom/iso2/avc1/mp41)
File size : 5.65 GiB
Duration : 2 h 11 min
Overall bit rate mode : Constant
Overall bit rate : 6 134 kb/s
Writing application : Lavf54.63.104

Video
ID : 1
Format : AVC
Format/Info : Advanced Video Codec
Format profile : [email protected]
Format settings : CABAC / 1 Ref Frames
Format settings, CABAC : Yes
Format settings, ReFrames : 1 frame
Format settings, GOP : M=3, N=100
Codec ID : avc1
Codec ID/Info : Advanced Video Coding
Duration : 2 h 11 min
Bit rate mode : Constant
Bit rate : 6 000 kb/s
Width : 1 920 pixels
Height : 1 080 pixels
Display aspect ratio : 16:9
Frame rate mode : Constant
Frame rate : 25.000 FPS
Color space : YUV
Chroma subsampling : 4:2:0
Bit depth : 8 bits
Scan type : Progressive
Bits/(Pixel*Frame) : 0.116
Stream size : 5.52 GiB (98%)
Codec configuration box : avcC

Audio
ID : 2
Format : LC
Format/Info : Advanced Audio Codec Low Complexity
Codec ID : mp4a-40-2
Duration : 2 h 11 min
Duration_LastFrame : -21 ms
Bit rate mode : Constant
Bit rate : 125 kb/s
Channel(s) : 2 channels
Channel layout : L R
Sampling rate : 48.0 kHz
Frame rate : 46.875 FPS (1024 SPF)
Compression mode : Lossy
Stream size : 118 MiB (2%)
Default : Yes
Alternate group : 1
Скріншоти:


Автор запису: sergiyko


 Трекер:    Зареєстрований   

Завантажити / скачати торрент



відео для новачків



 Зареєстрований:   2018-10-29 00:39
 Розмір:   5.65 GB 
 Оцінка:   10/10 (Голосів: 11)
   
AlexG9 
Новенький


З нами з: 12.01.15
Востаннє: 26.10.20
Повідомлень: 7

2018-10-29 00:41  
Дякую
sergiykos 
Новенький


З нами з: 28.05.18
Востаннє: 25.10.20
Повідомлень: 6

2018-10-29 02:41  
Дякую за роздачу.

Але сумую за трансляціями з пабу "Бочка". Тоді Подзигун більш неформально коментував. Інтерактив з публікою у вигляді шапки тоді трохи напрягав але водночас були і непристойні жарти і "русофобія" на високому рівні.

Ваш часовий пояс: GMT + 2 Години

Нова тема   Відповісти