Щонеділі / Any Given Sunday (1999) AVC Ukr/Eng | Sub Eng

Нові коментарі

Нова тема   Відповісти
Автор Повідомлення
yasav 
Поважний учасник


З нами з: 05.12.17
Востаннє: 28.02.21
Повідомлень: 238

2018-10-28 15:08  
Щонеділі / Any Given Sunday (1999) AVC Ukr/Eng | Sub Eng

Щонеділі / Any Given Sunday (1999) AVC Ukr/Eng | Sub Eng


Жанр: спорт, драма
Країна: США



Кінокомпанія: Warner Bros. Ixtlan,Donners' Company
Режисер: Олівер Стоун
Актори: Аль Пачіно , Кемерон Діаз, Денніс Куейд, Джеймс Вудс, Джеймі Фокс, ЛЛ Кул Джей, Метью Модайн, Джим Браун, Лоуренс Тейлор, Біл Белламі

Сюжет:
Чотири роки тому «Акули Майамі» перебували на вершині чемпіонату. Однак зараз команда перебуває в середині таблиці і вже програла 3 рази поспіль. Головний тренер команди Тоні Діамато стикається з проблемами як в команді, так і поза нею .

Нагороди та номінації
:
*2000 - номінація на приз «Золотий ведмідь» Берлінського кінофестивалю
*2000 - номінація на премію MTV Movie Awards за виконання чоловічої ролі (Джеймі Фокс)
Тривалість: 02:37:10
Якість:
Відео:
кодек:
розмір кадру: 1042 х 432
бітрейт: 1585 кб/с

Аудіо # 1:
мова: українська
переклад: багатоголосий закадровий
кодек: 5.1
бітрейт: 384 кб/с

Аудіо # 2:
мова: англійська
переклад: оригінал
кодек: 2.0
бітрейт: 192 кб/с

Субтитри:
мова: англійська
тип: програмні (м'які)
формат: *.srt

Завантажити семпл

Джерело озвучення:
Скріншоти
Media Info
General
Unique ID : 111188826401784766687349153119329055320 (0x53A63063EEB0944F7455A356D1EFF258)
Complete name : G:\Any Given Sunday (AVC) 1999.
Format :
Format version : Version 4 / Version 2
File size : 2.38 GiB
Duration : 2 h 37 min
Overall bit rate : 2 170 kb/s
Encoded date : UTC 2018-10-29 11:01:54
Writing application : v27.0.0 ('Metropolis') 64-bit
Writing library : libebml v1.3.6 + v1.4.9

Video
ID : 1
Format : AVC
Format/Info : Advanced Video Codec
Format profile : [email protected]
Format settings : CABAC / 8 Ref Frames
Format settings, CABAC : Yes
Format settings, ReFrames : 8 frames
Codec ID : V_MPEG4/ISO/AVC
Duration : 2 h 37 min
Bit rate : 1 585 kb/s
Width : 1 024 pixels
Height : 432 pixels
Display aspect ratio : 2.40:1
Frame rate mode : Constant
Frame rate : 23.976 (24000/1001) FPS
Color space : YUV
Chroma subsampling : 4:2:0
Bit depth : 8 bits
Scan type : Progressive
Bits/(Pixel*Frame) : 0.149
Stream size : 1.74 GiB (73%)
Writing library : core 92 r1510 33d382a
Encoding settings : cabac=1 / ref=8 / deblock=1:-1:-1 / analyse=0x3:0x133 / me=umh / subme=9 / psy=1 / psy_rd=1.00:0.00 / mixed_ref=1 / me_range=32 / chroma_me=0 / trellis=2 / 8x8dct=1 / cqm=0 / deadzone=21,11 / fast_pskip=0 / chroma_qp_offset=-2 / threads=6 / sliced_threads=0 / nr=0 / decimate=0 / interlaced=0 / constrained_intra=0 / bframes=8 / b_pyramid=2 / b_adapt=2 / b_bias=0 / direct=3 / wpredb=1 / wpredp=2 / keyint=250 / keyint_min=25 / scenecut=40 / intra_refresh=0 / rc_lookahead=100 / rc=2pass / mbtree=1 / bitrate=1585 / ratetol=1.0 / qcomp=0.60 / qpmin=10 / qpmax=51 / qpstep=4 / cplxblur=20.0 / qblur=0.5 / ip_ratio=1.40 / aq=1:0.90
Language : English
Default : Yes
Forced : No

Audio #1
ID : 2
Format : AC-3
Format/Info : Audio Coding 3
Codec ID : A_AC3
Duration : 2 h 37 min
Bit rate mode : Constant
Bit rate : 384 kb/s
Channel(s) : 6 channels
Channel positions : Front: L C R, Side: L R, LFE
Sampling rate : 48.0 kHz
Frame rate : 31.250 FPS (1536 SPF)
Bit depth : 16 bits
Compression mode : Lossy
Stream size : 432 MiB (18%)
Service kind : Complete Main
Default : Yes
Forced : No

Audio #2
ID : 3
Format :
Format/Info : Advanced Audio Codec
Format profile : LC
Codec ID : A_AAC-2
Duration : 2 h 37 min
Bit rate : 198 kb/s
Channel(s) : 6 channels
Channel positions : Front: L C R, Side: L R, LFE
Sampling rate : 48.0 kHz
Frame rate : 46.875 FPS (1024 SPF)
Compression mode : Lossy
Stream size : 223 MiB (9%)
Title : Оригінал (Англійська)
Language : English
Default : No
Forced : No

Text
ID : 4
Format : UTF-8
Codec ID : S_TEXT/UTF8
Codec ID/Info : UTF-8 Plain Text
Duration : 2 h 35 min
Bit rate : 65 b/s
Count of elements : 2080
Stream size : 73.9 KiB (0%)
Title : Оригінал (Англійські)
Language : English
Default : No
Forced : No
Особиста оцінка: 8 - мені сподобалося


Срібний реліз (на рейтинг впливає 50% завантаженого)
 Трекер:    Зареєстрований   

Завантажити / скачати фільм українською



відео для новачків



 Зареєстрований:   2018-10-28 15:08
 Розмір:   2.38 GB 
 Оцінка фільму:   9.4/10 (Голосів: 10)
   
Інші релізи
yasav 
Поважний учасник


З нами з: 05.12.17
Востаннє: 28.02.21
Повідомлень: 238

2018-10-29 09:14  
Прохання до модераторів, перевірити реліз
11FrYkT 
Модератор відео


З нами з: 20.02.11
Востаннє: 27.02.21
Повідомлень: 7152

2018-10-29 12:09  
yasav написано:
Title : Английский

надалі таке перейменовуйте, або видаляйте
yasav написано:

Text
ID : 4
Format : UTF-8
Codec ID : S_TEXT/UTF8
Codec ID/Info : UTF-8 Plain Text
Duration : 2 h 35 min
Bit rate : 65 b/s
Count of elements : 2080
Stream size : 73.9 KiB (0%)
Title : Английские
Language : English
Default : No
Forced : No


опишіть

yasav 
Поважний учасник


З нами з: 05.12.17
Востаннє: 28.02.21
Повідомлень: 238

2018-10-29 12:45  
11FrYkT
Видалив

11FrYkT 
Модератор відео


З нами з: 20.02.11
Востаннє: 27.02.21
Повідомлень: 7152

2018-10-29 12:51  
yasav написано:
Видалив

не звіт медіаінфо а при муксуванні заголовок, це я Вам писав наділі. Звіт верніть
і опишіть саби

Ваш часовий пояс: GMT + 2 Години

Нова тема   Відповісти