Хелловін (Геловін, Хеллоуін) / Halloween (1978) 1080p H.265 Ukr/Eng | Sub Eng

Нові коментарі

Нова тема   Відповісти
Автор Повідомлення
Anonymous 







2018-10-28 15:37  
Хелловін / Геловін / Хеллоуін / Halloween (1978) 1080p H.265 Ukr/Eng | Sub Eng

Хелловін (Геловін, Хеллоуін) / Halloween (1978) 1080p H.265 Ukr/Eng | Sub Eng
Українізований постер від Ham_R:


Жанр: трилер, жахи
Країна: США



Кінокомпанія: Compass International Pictures
Режисер: Джон Карпентер
Актори: Дональд Плезенс, Джеймі Лі Кертіс, Ненсі Кайс, Пі Джей Соулз, Чарльз Сайферс

Сюжет:
Майкл Маєрс в дитячому віці скоїв убивство власної сестри у Хелловін — День Усіх Святих. Через 15 років маніяк-вбивця знову взявся за старе і тероризує невелике містечко. Він утік з притулку для психічно хворих, щоб знову завдавати своїх смертельних ударів на Хелловін.


Тривалість: 01:30:56
Якість:
Відео:
кодек: H.265 (HEVC)
розмір кадру: 1920 х 816
бітрейт: 8159 кб/с
бітова глибина: 10 біт
Увага! Перед завантаженням переконайтесь, що ваш пристрій відтворення (та/або ПЗ) підтримує H.265 (HEVC)

Аудіо # 1:
мова: українська
переклад: багатоголосий закадровий | Студія "Антигламур"
кодек: 2.0
бітрейт: 192 кб/с

Аудіо # 2:
мова: англійська
переклад: оригінал
кодек: 5.1
бітрейт: 640 кб/с

Субтитри:
мова: англійська
тип: програмні (м'які)
формат: *.srt


Info
Код:
General
Unique ID                                : 86786779786063372910922086970295644129 (0x414A869A9CAC9EF3F394F4BB0174EFE1)
Complete name                            : F:\Video\Halloween (1978) 1080p H.265 [UKR_ENG].
Format                                   :
Format version                           : Version 4 / Version 2
File size                                : 5.71 GiB
Duration                                 : 1 h 30 min
Overall bit rate                         : 8 994 kb/s
Movie name                               : Halloween (1978)
Encoded date                             : UTC 2018-10-28 12:28:57
Writing application                      : v20.0.0 ('I Am The Sun') 32-bit
Writing library                          : libebml v1.3.5 + v1.4.8
Cover                                    : Yes
Attachments                              : Cover.jpg

Video
ID                                       : 1
Format                                   : HEVC
Format/Info                              : High Efficiency Video Coding
Format profile                           : Main [email protected]@High
Codec ID                                 : V_MPEGH/ISO/HEVC
Duration                                 : 1 h 30 min
Bit rate                                 : 8 159 kb/s
Width                                    : 1 920 pixels
Height                                   : 816 pixels
Display aspect ratio                     : 2.35:1
Frame rate mode                          : Constant
Frame rate                               : 23.976 (24000/1001) FPS
Color space                              : YUV
Chroma subsampling                       : 4:2:0
Bit depth                                : 10 bits
Bits/(Pixel*Frame)                       : 0.217
Stream size                              : 5.18 GiB (91%)
Writing library                          : x265 2.8+74-fd517ae68f93:[Windows][GCC 7.3.0][64 bit] 10bit
Encoding settings                        : cpuid=1111039 / frame-threads=3 / numa-pools=12 / wpp / no-pmode / no-pme / no-psnr / no-ssim / log-level=3 / input-csp=1 / input-res=1920x816 / interlace=0 / total-frames=0 / level-idc=41 / high-tier=1 / uhd-bd=0 / ref=5 / allow-non-conformance / no-repeat-headers / annexb / no-aud / no-hrd / info / hash=0 / no-temporal-layers / open-gop / min-keyint=24 / keyint=240 / gop-lookahead=0 / bframes=9 / b-adapt=2 / b-pyramid / bframe-bias=0 / rc-lookahead=40 / lookahead-slices=5 / scenecut=40 / radl=0 / no-intra-refresh / ctu=64 / min-cu-size=8 / rect / amp / max-tu-size=32 / tu-inter-depth=1 / tu-intra-depth=1 / limit-tu=0 / rdoq-level=0 / dynamic-rd=0.00 / no-ssim-rd / signhide / no-tskip / nr-intra=0 / nr-inter=0 / no-constrained-intra / no-strong-intra-smoothing / max-merge=2 / limit-refs=3 / no-limit-modes / me=3 / subme=7 / merange=57 / temporal-mvp / weightp / no-weightb / no-analyze-src-pics / deblock=-3:-3 / no-sao / no-sao-non-deblock / rd=3 / no-early-skip / rskip / no-fast-intra / no-tskip-fast / no-cu-lossless / no-b-intra / no-splitrd-skip / rdpenalty=0 / psy-rd=2.00 / psy-rdoq=0.00 / no-rd-refine / no-lossless / cbqpoffs=0 / crqpoffs=0 / rc=crf / crf=17.0 / qcomp=0.60 / qpstep=4 / stats-write=0 / stats-read=0 / vbv-maxrate=50000 / vbv-bufsize=50000 / vbv-init=0.9 / crf-max=0.0 / crf-min=0.0 / ipratio=1.40 / pbratio=1.30 / aq-mode=1 / aq-strength=1.00 / cutree / zone-count=0 / no-strict-cbr / qg-size=32 / no-rc-grain / qpmax=69 / qpmin=0 / no-const-vbv / sar=1 / overscan=0 / videoformat=5 / range=0 / colorprim=1 / transfer=1 / colormatrix=1 / chromaloc=0 / display-window=0 / max-cll=0,0 / min-luma=0 / max-luma=1023 / log2-max-poc-lsb=8 / vui-timing-info / vui-hrd-info / slices=1 / no-opt-qp-pps / no-opt-ref-list-length-pps / no-multi-pass-opt-rps / scenecut-bias=0.05 / no-opt-cu-delta-qp / no-aq-motion / no-hdr / no-hdr-opt / no-dhdr10-opt / no-idr-recovery-sei / analysis-reuse-level=5 / scale-factor=0 / refine-intra=0 / refine-inter=0 / refine-mv=0 / no-limit-sao / ctu-info=0 / no-lowpass-dct / refine-mv-type=0 / copy-pic=1 / max-ausize-factor=1.0 / no-dynamic-refine / no-single-sei
Default                                  : Yes
Forced                                   : No
Color range                              : Limited
Color primaries                          : BT.709
Transfer characteristics                 : BT.709
Matrix coefficients                      : BT.709

Audio #1
ID                                       : 2
Format                                   : AC-3
Format/Info                              : Audio Coding 3
Codec ID                                 : A_AC3
Duration                                 : 1 h 30 min
Bit rate mode                            : Constant
Bit rate                                 : 192 kb/s
Channel(s)                               : 2 channels
Channel positions                        : Front: L R
Sampling rate                            : 48.0 kHz
Frame rate                               : 31.250 FPS (1536 SPF)
Bit depth                                : 16 bits
Compression mode                         : Lossy
Stream size                              : 125 MiB (2%)
Title                                    : Студія "Антигламур"
Language                                 : Ukrainian
Service kind                             : Complete Main
Default                                  : Yes
Forced                                   : No

Audio #2
ID                                       : 3
Format                                   : AC-3
Format/Info                              : Audio Coding 3
Codec ID                                 : A_AC3
Duration                                 : 1 h 30 min
Bit rate mode                            : Constant
Bit rate                                 : 640 kb/s
Channel(s)                               : 6 channels
Channel positions                        : Front: L C R, Side: L R, LFE
Sampling rate                            : 48.0 kHz
Frame rate                               : 31.250 FPS (1536 SPF)
Bit depth                                : 16 bits
Compression mode                         : Lossy
Stream size                              : 416 MiB (7%)
Title                                    : Original
Language                                 : English
Service kind                             : Complete Main
Default                                  : No
Forced                                   : No

Text
ID                                       : 4
Format                                   : UTF-8
Codec ID                                 : S_TEXT/UTF8
Codec ID/Info                            : UTF-8 Plain Text
Duration                                 : 1 h 26 min
Bit rate                                 : 43 b/s
Count of elements                        : 964
Stream size                              : 27.3 KiB (0%)
Language                                 : English
Default                                  : No
Forced                                   : No

Menu
00:00:00.000                             : :Main Titles
00:02:05.750                             : :All Hallows Eve, 1963
00:07:00.545                             : :Hell Night
00:11:09.210                             : :On a Crisp October Morning...
00:14:29.869                             : :Fate
00:18:35.739                             : :Don't Talk to Strangers
00:23:02.881                             : :Trick or Treat
00:28:05.975                             : :Day of the Dead
00:31:00.942                             : :Autumn Twilight
00:34:45.123                             : :Haunted House
00:39:58.813                             : :The Bogeyman
00:44:05.059                             : :Things That Go Bump in the Night
00:49:04.608                             : :Samhain
00:54:15.752                             : :Pranks
00:58:30.757                             : :Halloween Partying
01:04:21.941                             : :Masquerade
01:08:49.667                             : :House of Mystery
01:14:21.915                             : :Decorations
01:18:32.833                             : :Danse Macabre
01:25:01.054                             : :"It Was the Bogeyman"
01:28:42.150                             : :End Credits
Скріншоти




Якщо у когось є в наявності укр. доріжки до інших частин, пишіть в ПП - зроблю колекцію

Джерело:
Особиста оцінка: 0 - не дивився




Авторський реліз (завантажувати можна без реєстрації)
 Трекер:    Зареєстрований   

Завантажити / скачати фільм українською



відео для новачків



 Зареєстрований:   2018-10-28 15:37
 Розмір:   5.71 GB 
 Оцінка фільму:   8.8/10 (Голосів: 10)
   
Інші релізи
zoomymba2012 
VIP


З нами з: 08.01.15
Востаннє: 21.09.20
Повідомлень: 687

2018-10-29 09:07  
Виправте назву фільма у назві реліза)
Anonymous 







2018-10-29 10:27  
zoomymba2012
А що не так?

zoomymba2012 
VIP


З нами з: 08.01.15
Востаннє: 21.09.20
Повідомлень: 687

2018-10-29 10:31  
-Star-Lord-
Геловін*

Anonymous 







2018-10-29 11:33  
zoomymba2012
Дякую! Виправив.

11FrYkT 
Модератор відео


З нами з: 20.02.11
Востаннє: 21.09.20
Повідомлень: 6992

2018-10-29 13:12  
-Star-Lord- , як озвучено у фільмі?
Anonymous 







2018-10-29 13:20  
11FrYkT
Не скажу, випадково видалив фільм з ПК.

Додано через 39 секунд:

За основу взято цей реліз - https://toloka.to/t60087

11FrYkT 
Модератор відео


З нами з: 20.02.11
Востаннє: 21.09.20
Повідомлень: 6992

2018-10-29 13:39  
-Star-Lord- написано:
Не скажу, випадково видалив фільм з ПК.

тоді як мінімум зробити як там, а ще краще перевірити

Anonymous 







2018-10-29 14:10  
11FrYkT
"Хелловін Джона Карпентера"

Astro TV 
Новенький


З нами з: 23.05.15
Востаннє: 15.09.20
Повідомлень: 1

2019-11-02 21:04  
БОЖЕ, НАРОД - ЦЕ БУЛО ВЕСЕЛО!!!
Я КАЙФОНУВ!!!

Ваш часовий пояс: GMT + 2 Години

Нова тема   Відповісти