Сансет Лімітед / The Sunset Limited (2011) Remux 1080p Ukr/Eng | Sub Eng

Нові коментарі

Нова тема   Відповісти
Автор Повідомлення
IronBee 
Поважний учасник


З нами з: 08.02.10
Востаннє: 28.09.20
Повідомлень: 231

2018-10-28 15:23  
Сансет Лімітед / The Sunset Limited (2011) Remux 1080p Ukr/Eng | Sub Eng

Сансет Лімітед / The Sunset Limited (2011) Remux 1080p Ukr/Eng | Sub Eng


Жанр: драма
Країна: США



Кінокомпанія: HBO Films, The Javelina Film Company
Режисер: Томмі Лі Джонс
Актори: Томмі Лі Джонс, Семюел Л. Джексон

Сюжет:
У сюжеті художнього фільму «Сансет Лімітед» два герої розмірковують про життя, Бога, віру та любов. Професор, який прожив довге життя, повністю присвячене науці, абсолютно нічого не знає про віру. Він не бачить сенсу існування, не тільки свого, а й всього людства і єдиним правильним виходом йому здається смерть, як завершення безцільного перебування на Землі.


Тривалість: 01:30:00
Якість: Remux
Відео:
кодек:
розмір кадру: 1920 х 1080
бітрейт: 23,9 Mб/с

Аудіо # 1:
мова: українська
переклад: двоголосий закадровий | DubLiCat
кодек: -HD MA 5.1
бітрейт: 3577 кб/с

Аудіо # 2:
мова: українська
переклад: двоголосий закадровий | DubLiCat
кодек: 5.1
бітрейт: 640 кб/с

Аудіо # 2:
мова: англійська
переклад: оригінал
кодек: -HD MA 5.1
бітрейт: 3501 кб/с

Субтитри:
мова: англійська (SDH)
тип: програмні (м'які)
формат: *.srt
Info
General
Unique ID : 261408040306165087222533889452311205946 (0xC4A95B74ED742F588DDC0D7AB86E583A)
Complete name : E:\Films\Сансет Лімітед The Sunset Limited (2011) Remux 1080p UkrEng sub Eng[Hurtom].
Format :
Format version : Version 4
File size : 20.1 GiB
Duration : 1 h 30 min
Overall bit rate mode : Variable
Overall bit rate : 31.6 Mb/s
Encoded date : UTC 2018-10-29 14:51:18
Writing application : v28.2.0 ('The Awakening') 64-bit
Writing library : libebml v1.3.6 + v1.4.9
Attachments : poster.jpg

Video
ID : 1
Format : AVC
Format/Info : Advanced Video Codec
Format profile : [email protected]
Format settings : CABAC / 4 Ref Frames
Format settings, CABAC : Yes
Format settings, ReFrames : 4 frames
Codec ID : V_MPEG4/ISO/AVC
Duration : 1 h 30 min
Bit rate mode : Variable
Bit rate : 23.9 Mb/s
Maximum bit rate : 38.0 Mb/s
Width : 1 920 pixels
Height : 1 080 pixels
Display aspect ratio : 16:9
Frame rate mode : Constant
Frame rate : 23.976 (24000/1001) FPS
Color space : YUV
Chroma subsampling : 4:2:0
Bit depth : 8 bits
Scan type : Progressive
Bits/(Pixel*Frame) : 0.480
Stream size : 15.2 GiB (76%)
Default : Yes
Forced : No

Audio #1
ID : 2
Format : XLL
Format/Info : Digital Theater Systems
Commercial name : -HD Master Audio
Codec ID : A_DTS
Duration : 1 h 30 min
Bit rate mode : Variable
Bit rate : 3 577 kb/s
Channel(s) : 6 channels
Channel layout : C L R Ls Rs LFE
Sampling rate : 48.0 kHz
Frame rate : 93.750 FPS (512 SPF)
Bit depth : 24 bits
Compression mode : Lossless
Stream size : 2.27 GiB (11%)
Language : Ukrainian
Default : Yes
Forced : No

Audio #2
ID : 3
Format : AC-3
Format/Info : Audio Coding 3
Commercial name : Dolby Digital
Codec ID : A_AC3
Duration : 1 h 30 min
Bit rate mode : Constant
Bit rate : 640 kb/s
Channel(s) : 6 channels
Channel layout : L R C LFE Ls Rs
Sampling rate : 48.0 kHz
Frame rate : 31.250 FPS (1536 SPF)
Bit depth : 16 bits
Compression mode : Lossy
Stream size : 416 MiB (2%)
Language : Ukrainian
Service kind : Complete Main
Default : No
Forced : No

Audio #3
ID : 4
Format : XLL
Format/Info : Digital Theater Systems
Commercial name : -HD Master Audio
Codec ID : A_DTS
Duration : 1 h 30 min
Bit rate mode : Variable
Bit rate : 3 501 kb/s
Channel(s) : 6 channels
Channel layout : C L R Ls Rs LFE
Sampling rate : 48.0 kHz
Frame rate : 93.750 FPS (512 SPF)
Bit depth : 24 bits
Compression mode : Lossless
Stream size : 2.22 GiB (11%)
Language : English
Default : No
Forced : No

Text
ID : 5
Format : UTF-8
Codec ID : S_TEXT/UTF8
Codec ID/Info : UTF-8 Plain Text
Duration : 1 h 26 min
Bit rate : 108 b/s
Count of elements : 1662
Stream size : 69.0 KiB (0%)
Title : SDH
Language : English
Default : No
Forced : No

Menu
00:00:00.000 : :00:00:00.000
00:07:57.686 : :00:07:57.686
00:15:35.184 : :00:15:35.184
00:24:07.321 : :00:24:07.321
00:33:18.663 : :00:33:18.663
00:41:11.094 : :00:41:11.094
00:48:52.346 : :00:48:52.346
00:55:55.310 : :00:55:55.310
01:01:50.373 : :01:01:50.373
01:11:12.602 : :01:11:12.602
01:18:16.025 : :01:18:16.025
01:26:39.111 : :01:26:39.111
Скріншоти





Подяка за доріжку пану Electroz

Джерело: &
Особиста оцінка: 10 - без зайвих вагань рекомендую всім!


Золотий реліз (завантажене не впливає на рейтинг)
 Трекер:    Зареєстрований   

Завантажити / скачати фільм українською



відео для новачків



 Зареєстрований:   2018-10-29 20:34
 Розмір:   20.07 GB 
 Оцінка фільму:   10/10 (Голосів: 6)
   
Інші релізи
   Сансет Лімітед / The Sunset Limited (2011) AVC Ukr/Eng dragheart  6 / 0   3.28 GB   2018-09-22 12:40 
Electroz 
Відео Гуртом - підтримка та поширення
Відео Гуртом - підтримка та поширення


З нами з: 18.09.14
Востаннє: 29.09.20
Повідомлень: 4029

2018-10-28 15:36  
IronBee
скинь мені оригінальну дтс-хд доріжку, зроблю 5.1

kryk-v.ya. 
Попереджень: 1
Попереджень: 1 


З нами з: 14.02.14
Востаннє: 29.09.20
Повідомлень: 2250

2018-10-28 18:11  
мені не зайшов цей фільм...теми про Бога про релігію не для мене...
+380954897458 
VIP


З нами з: 02.06.17
Востаннє: 18.09.20
Повідомлень: 942

2018-10-28 23:11  
Песимістичний фільм, що залишає гнічюче враження, самому хочеться після перегляду кинутися під потяг. Хоча спостерігати за грою двох суперпрофесіоналів - чиста насолода.
IronBee 
Поважний учасник


З нами з: 08.02.10
Востаннє: 28.09.20
Повідомлень: 231

2018-10-29 20:36  
Реліз оновлено: доріжку замінено на якіснішу, прохання всім перекачати торент
Ваш часовий пояс: GMT + 2 Години

Нова тема   Відповісти