Мрійники / The Dreamers (2003) mini 1080p H.265 Ukr/Eng | Sub Eng

Нові коментарі

Нова тема   Відповісти
Автор Повідомлення
Anonymous 







2018-10-28 14:44  
Мрійники / The Dreamers (2003) mini 1080p H.265 Ukr/Eng | Sub Eng

Мрійники / The Dreamers (2003) mini 1080p H.265 Ukr/Eng | Sub Eng

Жанр: драма, романтичний, еротика
Країна: Великобританія, Франція, Італія



Кінокомпанія: Recorded Picture Company, Peninsula Films, Fiction Films
Режисер: Бернардо Бертолуччі / Bernardo Bertolucci
Актори: Майкл Пітт / Michael Pitt, Єва Ґрін / Eva Green, Луї Ґарель / Louis Garrel, Анна Ченселлор /Anna Chancellor, Робін Ренуччі / Robin Renucci, Жан-П'єр Кальфон / Jean-Pierre Kalfon, Флоріян Кадю / Florian Cadiou, Пєр Ганчіссе / Pierre Hancisse, Валентін Мерлет / Valentin Merlet

Сюжет:
Хлопець зі звичайної інтелігентної родини, відправляється в Париж, щоб покращити свою французьку. Захоплюючись і вивчаючи кіно, він знайомиться з двома бунтарями Тео і Ізабель, які є братом і сестрою. Вони посвячують його у своє життя і він розуміє що потрапив до мрійників, але їхня мрія в результаті не настільки виявляється близька до його ...

Вікові обмеження: NC-17 (18+)
Тривалість: 01:54:35
Якість: mini
Відео:
кодек: H.265 (HEVC)
розмір кадру: 1918 х 1074
бітрейт: 5 076 кб/с
бітова глибина: 10 біт
Увага! Перед завантаженням переконайтесь, що ваш пристрій відтворення (та/або ПЗ) підтримує H.265 (HEVC)

Аудіо # 1:
мова: українська
переклад: багатоголосий закадровий
кодек: 2.0
бітрейт: 192 кб/с

Аудіо # 2:
мова: англійська
переклад: оригінал
кодек: 5.1
бітрейт: 640 кб/с

Субтитри # 1-2:
мова: англійська (Forced, Full)
тип: програмні (м'які)
формат: *.srt


Info
Код:
General
Unique ID                                : 191918099418078118686523373063251135731 (0x906214DA29F2B8ECF7D70BE2F9CF8CF3)
Complete name                            : F:\Video\The Dreamers (2003) 1080p H.265 [UKR_ENG].
Format                                   :
Format version                           : Version 4 / Version 2
File size                                : 4.73 GiB
Duration                                 : 1 h 54 min
Overall bit rate                         : 5 912 kb/s
Movie name                               : The Dreamers (2003)
Encoded date                             : UTC 2018-10-28 11:37:05
Writing application                      : v20.0.0 ('I Am The Sun') 32-bit
Writing library                          : libebml v1.3.5 + v1.4.8
Cover                                    : Yes
Attachments                              : Cover.jpg

Video
ID                                       : 1
Format                                   : HEVC
Format/Info                              : High Efficiency Video Coding
Format profile                           : Main [email protected]@Main
Codec ID                                 : V_MPEGH/ISO/HEVC
Duration                                 : 1 h 54 min
Bit rate                                 : 5 076 kb/s
Width                                    : 1 918 pixels
Height                                   : 1 074 pixels
Display aspect ratio                     : 16:9
Frame rate mode                          : Constant
Frame rate                               : 24.000 FPS
Color space                              : YUV
Chroma subsampling                       : 4:2:0
Bit depth                                : 10 bits
Bits/(Pixel*Frame)                       : 0.103
Stream size                              : 4.06 GiB (86%)
Writing library                          : x265 2.6+37-1949157705ce:[Windows][GCC 7.3.0][64 bit] 10bit
Encoding settings                        : cpuid=1173503 / frame-threads=3 / numa-pools=8 / wpp / no-pmode / no-pme / no-psnr / no-ssim / log-level=2 / input-csp=1 / input-res=1918x1074 / interlace=0 / total-frames=165000 / level-idc=0 / high-tier=1 / uhd-bd=0 / ref=4 / no-allow-non-conformance / no-repeat-headers / annexb / no-aud / no-hrd / info / hash=0 / no-temporal-layers / open-gop / min-keyint=24 / keyint=250 / gop-lookahead=0 / bframes=4 / b-adapt=2 / b-pyramid / bframe-bias=0 / rc-lookahead=25 / lookahead-slices=4 / scenecut=40 / radl=0 / no-intra-refresh / ctu=64 / min-cu-size=8 / rect / no-amp / max-tu-size=32 / tu-inter-depth=1 / tu-intra-depth=1 / limit-tu=0 / rdoq-level=2 / dynamic-rd=0.00 / no-ssim-rd / signhide / no-tskip / nr-intra=0 / nr-inter=0 / no-constrained-intra / strong-intra-smoothing / max-merge=3 / limit-refs=3 / limit-modes / me=3 / subme=3 / merange=57 / temporal-mvp / weightp / no-weightb / no-analyze-src-pics / deblock=0:0 / sao / no-sao-non-deblock / rd=4 / no-early-skip / rskip / no-fast-intra / no-tskip-fast / no-cu-lossless / no-b-intra / no-splitrd-skip / rdpenalty=0 / psy-rd=2.00 / psy-rdoq=1.00 / no-rd-refine / no-lossless / cbqpoffs=0 / crqpoffs=0 / rc=abr / bitrate=5075 / qcomp=0.60 / qpstep=4 / stats-write=0 / stats-read=2 / cplxblur=20.0 / qblur=0.5 / ipratio=1.40 / pbratio=1.30 / aq-mode=3 / aq-strength=1.00 / cutree / zone-count=0 / no-strict-cbr / qg-size=32 / no-rc-grain / qpmax=69 / qpmin=0 / no-const-vbv / sar=0 / overscan=0 / videoformat=5 / range=0 / colorprim=2 / transfer=2 / colormatrix=2 / chromaloc=0 / display-window=0 / max-cll=0,0 / min-luma=0 / max-luma=1023 / log2-max-poc-lsb=8 / vui-timing-info / vui-hrd-info / slices=1 / no-opt-qp-pps / no-opt-ref-list-length-pps / multi-pass-opt-rps / scenecut-bias=0.05 / no-opt-cu-delta-qp / aq-motion / no-hdr / no-hdr-opt / no-dhdr10-opt / analysis-reuse-level=5 / scale-factor=0 / refine-intra=0 / refine-inter=0 / refine-mv=0 / no-limit-sao / ctu-info=0 / no-lowpass-dct / refine-mv-type=0 / copy-pic=1
Default                                  : Yes
Forced                                   : No

Audio #1
ID                                       : 2
Format                                   : AC-3
Format/Info                              : Audio Coding 3
Codec ID                                 : A_AC3
Duration                                 : 1 h 54 min
Bit rate mode                            : Constant
Bit rate                                 : 192 kb/s
Channel(s)                               : 2 channels
Channel positions                        : Front: L R
Sampling rate                            : 48.0 kHz
Frame rate                               : 31.250 FPS (1536 SPF)
Bit depth                                : 16 bits
Compression mode                         : Lossy
Stream size                              : 157 MiB (3%)
Title                                    : TBi
Language                                 : Ukrainian
Service kind                             : Complete Main
Default                                  : Yes
Forced                                   : No

Audio #2
ID                                       : 3
Format                                   : AC-3
Format/Info                              : Audio Coding 3
Codec ID                                 : A_AC3
Duration                                 : 1 h 54 min
Bit rate mode                            : Constant
Bit rate                                 : 640 kb/s
Channel(s)                               : 6 channels
Channel positions                        : Front: L C R, Side: L R, LFE
Sampling rate                            : 48.0 kHz
Frame rate                               : 31.250 FPS (1536 SPF)
Bit depth                                : 16 bits
Compression mode                         : Lossy
Stream size                              : 524 MiB (11%)
Title                                    : Original
Language                                 : English
Service kind                             : Complete Main
Default                                  : No
Forced                                   : No

Text #1
ID                                       : 4
Format                                   : UTF-8
Codec ID                                 : S_TEXT/UTF8
Codec ID/Info                            : UTF-8 Plain Text
Duration                                 : 1 h 43 min
Bit rate                                 : 5 b/s
Count of elements                        : 158
Stream size                              : 3.95 KiB (0%)
Title                                    : Forced
Language                                 : English
Default                                  : Yes
Forced                                   : No

Text #2
ID                                       : 5
Format                                   : UTF-8
Codec ID                                 : S_TEXT/UTF8
Codec ID/Info                            : UTF-8 Plain Text
Duration                                 : 1 h 45 min
Bit rate                                 : 44 b/s
Count of elements                        : 932
Stream size                              : 33.9 KiB (0%)
Language                                 : English
Default                                  : No
Forced                                   : No

Menu
00:00:00.000                             : en:Chapter 01
00:08:58.458                             : en:Chapter 02
00:24:49.083                             : en:Chapter 03
00:32:30.583                             : en:Chapter 04
00:39:36.291                             : en:Chapter 05
00:48:59.916                             : en:Chapter 06
00:59:19.583                             : en:Chapter 07
01:10:03.333                             : en:Chapter 08
01:16:10.708                             : en:Chapter 09
01:24:46.416                             : en:Chapter 10
01:29:57.666                             : en:Chapter 11
01:37:11.958                             : en:Chapter 12
01:40:41.791                             : en:Chapter 13
01:44:22.916                             : en:Chapter 14
01:49:25.083                             : en:Chapter 15
Скріншоти




Джерело:
Особиста оцінка: 0 - не дивився




Срібний реліз (на рейтинг впливає 50% завантаженого)
 Трекер:    Зареєстрований   

Завантажити / скачати фільм українською



відео для новачків



 Зареєстрований:   2018-10-28 14:44
 Розмір:   4.73 GB 
 Оцінка фільму:   8.3/10 (Голосів: 6)
   
Інші релізи
   Мрійники / The Dreamers (2003) 720p Ukr/Eng | Sub Eng xfsthe  2 / 0   6.61 GB   2014-03-03 01:15 
   Мрійники / The Dreamers (2003) Ukr/Eng | Sub Eng karvai0  13 / 3   1.74 GB   2013-09-13 00:31 
Ваш часовий пояс: GMT + 2 Години

Нова тема   Відповісти