Гаманець або життя / Trick 'r Treat (2007) AVC Ukr/Eng | Sub Ukr/Eng

Нові коментарі

Нова тема   Відповісти
Автор Повідомлення
Anonymous 







2018-10-27 23:56  
Гаманець або життя / Trick 'r Treat (2007) AVC Ukr/Eng | Sub Ukr/Eng

Гаманець або життя / Trick 'r Treat (2007) AVC Ukr/Eng | Sub Ukr/Eng
Українізований та оригінальні постери і обкладинки:

Гаманець або життя / Trick 'r Treat (2007) AVC Ukr/Eng | Sub Ukr/Eng

Гаманець або життя / Trick 'r Treat (2007) AVC Ukr/Eng | Sub Ukr/Eng





Жанр: жахи, трилер, комедія
Країна: США



Кінокомпанія: Warner Bros., Legendary Pictures, Bad Hat Harry Productions
Режисер: Майкл Доґерті / Michael Dougherty
Актори: Ділан Бейкер / Dylan Baker, Рошель Єтс / Rochelle Aytes, Квін Лорд / Quinn Lord, Лорен Лі Сміт / Lauren Lee Smith, Моніка Делаін / Moneca Delain та інші.

Сюжет:
Фільм складається з чотирьох пов'язаних між собою моторошних історій, що відбулися на Геловін в американському містечку в штаті Огайо. Всі ці історії об'єднує одна істота - Сем - таємнича постать у помаранчевій потертій піжамі, що носить мішок на голові. Він з'являється у всіх історіях, стежачи за тим, щоб традиції Савину / Геловіну неухильно дотримувалися.


Рейтинг MPAA: R - особам до 17 років обов'язкова присутність батьків або дорослого опікуна
Вікова категорія: 16+

Тривалість: 01:22:22
Якість: AVC
Відео:
кодек:
розмір кадру: 1024х422
бітрейт: 1600 кб/с

Аудіо # 1:
мова: українська
переклад: багатоголосий закадровий
кодек: 2.0
бітрейт: 192 кб/с

Аудіо # 2:
мова: англійська
переклад: оригінал
кодек: 5.1
бітрейт: 448 кб/с

Субтитри # 1:
мова: українська
тип: програмні (м'які)
формат: *.srt

Субтитри # 2:
мова: англійська
тип: програмні (м'які)
формат: *.srt

Збережено оригінальні розділи, як на Blu-ray
Info
Код:
Complete name               : Trick 'r Treat (2007) [Ukr,Eng sub.Ukr,Eng] AVC [Hurtom].
Format                      :
Format version              : Version 4
File size                   : 1.29 GiB
Duration                    : 1 h 22 min
Overall bit rate            : 2 240 kb/s
Movie name                  : Гаманець або життя / Trick 'r Treat (2007) [Ukr,Eng sub.Ukr,Eng] AVC [Hurtom]
Released date               : 2007
Encoded date                : UTC 2018-10-27 22:41:20
Writing application         : v28.2.0 ('The Awakening') 64-bit
Writing library             : libebml v1.3.6 + v1.4.9
Cover                       : Yes
Comment                     : https://www.imdb.com/title/tt0862856/
Attachments                 : cover.jpg
DIRECTOR                    : Майкл Доґерті / Michael Dougherty
GENRE                       : жахи, трилер, комедія
SYNOPSIS                    : Фільм складається з чотирьох пов'язаних між собою моторошних історій, що відбулися на Геловін в американському містечку в штаті Огайо. Всі ці історії об'єднує одна істота - Сем - таємнича постать у помаранчевій потертій піжамі, що носить мішок на голові. Він з'являється у всіх історіях, стежачи за тим, щоб традиції Савину / Геловіну неухильно дотримувалися...
Url                         : https://toloka.to/t96056

Video
ID                          : 1
Format                      : AVC
Format/Info                 : Advanced Video Codec
Format profile              : [email protected]
Format settings             : CABAC / 9 Ref Frames
Format settings, CABAC      : Yes
Format settings, ReFrames   : 9 frames
Codec ID                    : V_MPEG4/ISO/AVC
Duration                    : 1 h 22 min
Bit rate                    : 1 600 kb/s
Width                       : 1 024 pixels
Height                      : 422 pixels
Display aspect ratio        : 2.40:1
Frame rate mode             : Constant
Frame rate                  : 23.976 (24000/1001) FPS
Color space                 : YUV
Chroma subsampling          : 4:2:0
Bit depth                   : 8 bits
Scan type                   : Progressive
Bits/(Pixel*Frame)          : 0.154
Stream size                 : 941 MiB (71%)
Title                       : Гаманець або життя / Trick 'r Treat (2007) AVC [MediaClub-Lefevr]
Writing library             : core 142 r2409+42 04be48a tMod [[email protected]:2:0 X86]
Encoding settings           : cabac=1 / ref=9 / deblock=1:-2:-2 / analyse=0x3:0x133 / me=umh / subme=11 / psy=1 / fade_compensate=0.00 / psy_rd=1.00:0.15 / mixed_ref=1 / me_range=32 / chroma_me=1 / trellis=2 / 8x8dct=1 / cqm=0 / deadzone=21,11 / fast_pskip=0 / chroma_qp_offset=-3 / threads=6 / lookahead_threads=1 / sliced_threads=0 / nr=0 / decimate=0 / interlaced=0 / bluray_compat=0 / constrained_intra=0 / fgo=0 / bframes=8 / b_pyramid=2 / b_adapt=2 / b_bias=0 / direct=3 / weightb=1 / open_gop=0 / weightp=2 / keyint=240 / keyint_min=23 / scenecut=40 / intra_refresh=0 / rc=2pass / mbtree=0 / bitrate=1600 / ratetol=1.0 / qcomp=0.60 / qpmin=0:0:0 / qpmax=69:69:69 / qpstep=4 / cplxblur=20.0 / qblur=0.5 / ip_ratio=1.40 / pb_ratio=1.30 / aq=1:1.00 / aq-sensitivity=10.00 / aq-factor=1.00:1.00:1.00 / aq2=0 / aq3=0
Language                    : English
Default                     : Yes
Forced                      : No

Audio #1
ID                          : 2
Format                      : AC-3
Format/Info                 : Audio Coding 3
Commercial name             : Dolby Digital
Codec ID                    : A_AC3
Duration                    : 1 h 22 min
Bit rate mode               : Constant
Bit rate                    : 192 kb/s
Channel(s)                  : 2 channels
Channel layout              : L R
Sampling rate               : 48.0 kHz
Frame rate                  : 31.250 FPS (1536 SPF)
Bit depth                   : 16 bits
Compression mode            : Lossy
Stream size                 : 113 MiB (9%)
Title                       : MVO [ICTV]
Language                    : Ukrainian
Service kind                : Complete Main
Default                     : Yes
Forced                      : Yes

Audio #2
ID                          : 3
Format                      : AC-3
Format/Info                 : Audio Coding 3
Commercial name             : Dolby Digital
Codec ID                    : A_AC3
Duration                    : 1 h 22 min
Bit rate mode               : Constant
Bit rate                    : 448 kb/s
Channel(s)                  : 6 channels
Channel layout              : L R C LFE Ls Rs
Sampling rate               : 48.0 kHz
Frame rate                  : 31.250 FPS (1536 SPF)
Bit depth                   : 16 bits
Compression mode            : Lossy
Stream size                 : 264 MiB (20%)
Title                       : Original, 5.1 448 Kbps
Language                    : English
Service kind                : Complete Main
Default                     : No
Forced                      : No

Text #1
ID                          : 4
Format                      : UTF-8
Codec ID                    : S_TEXT/UTF8
Codec ID/Info               : UTF-8 Plain Text
Duration                    : 1 h 21 min
Bit rate                    : 44 b/s
Count of elements           : 534
Stream size                 : 26.6 KiB (0%)
Title                       : Ukr full [DVD]
Language                    : Ukrainian
Default                     : No
Forced                      : No

Text #2
ID                          : 5
Format                      : UTF-8
Codec ID                    : S_TEXT/UTF8
Codec ID/Info               : UTF-8 Plain Text
Duration                    : 1 h 16 min
Bit rate                    : 28 b/s
Count of elements           : 516
Stream size                 : 16.2 KiB (0%)
Title                       : Eng full
Language                    : English
Default                     : No
Forced                      : No

Menu
00:00:00.000                : en:It's Halloween, Not Hanukkah
00:04:54.002                : en:Credits
00:08:30.134                : en:Girls' Night Out
00:11:23.391                : en:Always Check Your Candy
00:17:20.873                : en:Backyard Burial
00:21:51.727                : en:Help Me With the Eyes
00:24:55.285                : en:Watch Out for Monsters
00:29:57.170                : en:Halloween Schoolbus Massacre
00:36:45.286                : en:Laurie On the Prowl
00:39:53.808                : en:Buried Secrets
00:43:06.375                : en:A Bad Joke
00:46:06.054                : en:Not a Trick
00:49:35.639                : en:What Big Eyes You Have
00:56:21.377                : en:Old Mr. Kreeg
01:00:47.518                : en:Pumpkin Patch
01:03:40.191                : en:Meet Sam
01:08:24.850                : en:Something Good to Eat
01:14:42.477                : en:Trick Or Treat
01:17:41.656                : en:End Credits


Джерело: & &
Подяка POMEO, bodia87 за запис з ТБ, robotron005 за синхронізацію, Тиріку за постер.


 Трекер:    Зареєстрований   

Завантажити / скачати фільм українською



відео для новачків



 Зареєстрований:   2018-10-28 01:55
 Розмір:   1.29 GB 
 Оцінка фільму:   8.4/10 (Голосів: 8)
 ЗАЛИШАЙТЕСЬ ЯКОМОГА ДОВШЕ НА РОЗДАЧІ! ЗАВАНТАЖИВ САМ - ДАЙ ЗАВАНТАЖИТИ ІНШИМ.
   
Інші релізи
Ua.bos_01 
VIP


З нами з: 22.06.15
Востаннє: 21.04.19
Повідомлень: 1554

2018-11-05 18:56  
Цілком посередня картина комедія чорного гумору. Нічого надзвичайного. Одноразове кіно.
Ваш часовий пояс: GMT + 2 Години

Нова тема   Відповісти