Зачарований принц / Charming (2018) Remux 1080p Ukr/Eng

Нові коментарі

Нова тема   Відповісти
Автор Повідомлення
Anonymous 







2018-10-27 20:26  
Зачарований принц / Charming (2018) Remux 1080p Ukr/Eng

Зачарований принц / Charming (2018) Remux 1080p Ukr/Eng
Альтернативний постер:


Жанр: анімаційний, комедія, мюзикл, сімейний, фентезі
Країна: США, Канада



Кінокомпанія: 3QU Media, Cinesite, Storyoscopic Films
Режисер: Росс Венокур / Ross Venokur
Актори: Демі Ловато / Demi Lovato, Вілмер Вальдеррама / Wilmer Valderrama, Сія Ферлер / Sia Furler, Ніа Вардалос / Nia Vardalos, Ешлі Тісдейл / Ashley Tisdale, Авріл Лавін / Avril Lavigne, Джон Кліз / John Cleese, Ді Бредлі Бейкер / Dee Bradley Baker, Карлос Алазракі / Carlos Alazraqui та інші

Сюжет:
Про прекрасного принца мріє кожна, що вже говорити про прегарних. Незвичайний дар юнак отримав ще при народженні: дівчата готові на все заради його посмішки, але плата за це - праведний гнів чоловіків. Такий стан справ не може тривати вічно, а дар от-от обернеться прокляттям. І тепер у зачарованого принца всього три дні, щоб врятувати Королівство від самого себе ...
Офіційні українські трейлер та відео:



Тривалість: 01:25:22
Якість: Remux 1080p [GER Blu-ray]

Відео:
кодек:
розмір кадру: 1920 х 1080
бітрейт: 23,5 Мб/с

Аудіо # 1:
мова: українська
переклад: професійний дубльований | студія Postmodern
кодек: 5.1
бітрейт: 384 кб/с
примітка: пісні в оригіналі (не дублювались)
Інформація про дубляж
Переклад: Олексій Зражевський
Режисер дубляжу: Ольга Фокіна
Звукорежисер: Денис Подлясський
Звукорежисер перезапису: Юрій Антонов
Ролі дублювали: Олег Винник, Антоніна Якушева, Катерина Брайковська, Юлія Перенчук, Марина Локтіонова, Лариса Руснак, Сергій Кияшко, Максим Кондратюк та інші.

Дубльовано студією Postmodern на замовлення "Вольга Україна".
Аудіо #2:
мова: англійська
переклад: оригінал
кодек: -HD MA 5.1
бітрейт: 2111 кб/с

Збережено оригінальні розділи, як на Blu-ray
Info
Код:
Complete name               : Charming (2018) [Ukr,Eng] Remux 1080p [Hurtom].
Format                      :
Format version              : Version 4
File size                   : 15.5 GiB
Duration                    : 1 h 25 min
Overall bit rate mode       : Variable
Overall bit rate            : 26.0 Mb/s
Movie name                  : Зачарований принц / Charming (2018) [Ukr,Eng] Remux 1080p [Hurtom]
Released date               : 2018
Encoded date                : UTC 2018-10-28 07:13:38
Writing application         : v28.2.0 ('The Awakening') 64-bit
Writing library             : libebml v1.3.6 + v1.4.9
Cover                       : Yes
Comment                     : https://www.imdb.com/title/tt4086018/
Attachments                 : cover.jpg
DIRECTOR                    : Росс Венокур / Ross Venokur
GENRE                       : анімаційний, комедія, мюзикл, сімейний, фентезі
SYNOPSIS                    : Про прекрасного принца мріє кожна, що вже говорити про прегарних. Незвичайний дар юнак отримав ще при народженні: дівчата готові на все заради його посмішки, але плата за це - праведний гнів чоловіків. Такий стан справ не може тривати вічно, а дар от-от обернеться прокляттям. І тепер у зачарованого принца всього три дні, щоб врятувати Королівство від самого себе...
Url                         : https://toloka.to/t96053

Video
ID                          : 1
Format                      : AVC
Format/Info                 : Advanced Video Codec
Format profile              : [email protected]
Format settings             : CABAC / 3 Ref Frames
Format settings, CABAC      : Yes
Format settings, ReFrames   : 3 frames
Codec ID                    : V_MPEG4/ISO/AVC
Duration                    : 1 h 25 min
Bit rate mode               : Variable
Bit rate                    : 23.5 Mb/s
Maximum bit rate            : 30.0 Mb/s
Width                       : 1 920 pixels
Height                      : 1 080 pixels
Display aspect ratio        : 16:9
Frame rate mode             : Constant
Frame rate                  : 23.976 (24000/1001) FPS
Color space                 : YUV
Chroma subsampling          : 4:2:0
Bit depth                   : 8 bits
Scan type                   : Progressive
Bits/(Pixel*Frame)          : 0.472
Stream size                 : 14.0 GiB (90%)
Title                       : Зачарований принц / Charming (2018) [Ukr,Eng] Remux 1080p
Language                    : English
Default                     : Yes
Forced                      : No

Audio #1
ID                          : 2
Format                      : AC-3
Format/Info                 : Audio Coding 3
Commercial name             : Dolby Digital
Codec ID                    : A_AC3
Duration                    : 1 h 25 min
Bit rate mode               : Constant
Bit rate                    : 384 kb/s
Channel(s)                  : 6 channels
Channel layout              : L R C LFE Ls Rs
Sampling rate               : 48.0 kHz
Frame rate                  : 31.250 FPS (1536 SPF)
Bit depth                   : 16 bits
Compression mode            : Lossy
Stream size                 : 234 MiB (1%)
Title                       : DUB [Postmodern, іТunes] 5.1 384 Kbps
Language                    : Ukrainian
Service kind                : Complete Main
Default                     : Yes
Forced                      : Yes

Audio #2
ID                          : 3
Format                      : XLL
Format/Info                 : Digital Theater Systems
Commercial name             : -HD Master Audio
Codec ID                    : A_DTS
Duration                    : 1 h 25 min
Bit rate mode               : Variable
Bit rate                    : 2 111 kb/s
Channel(s)                  : 6 channels
Channel layout              : C L R Ls Rs LFE
Sampling rate               : 48.0 kHz
Frame rate                  : 93.750 FPS (512 SPF)
Bit depth                   : 16 bits
Compression mode            : Lossless
Stream size                 : 1.26 GiB (8%)
Title                       : Original, -HD MA 5.1 2111 Kbps
Language                    : English
Default                     : No
Forced                      : No

Menu
00:00:00.000                : :Chapter 1
00:05:53.769                : :Chapter 2
00:11:26.101                : :Chapter 3
00:19:51.022                : :Chapter 4
00:24:36.807                : :Chapter 5
00:33:56.491                : :Chapter 6
00:39:40.210                : :Chapter 7
00:47:15.373                : :Chapter 8
00:53:27.661                : :Chapter 9
01:00:26.164                : :Chapter 10
01:08:56.506                : :Chapter 11
01:14:49.149                : :Chapter 12


Джерело: &


Золотий реліз (завантажене не впливає на рейтинг)
 Трекер:    Зареєстрований   

Завантажити / скачати мультфільм українською



відео для новачків



 Зареєстрований:   2018-10-28 09:28
 Розмір:   15.49 GB 
 Оцінка мультфільму:   8.9/10 (Голосів: 9)
 ЗАЛИШАЙТЕСЬ ЯКОМОГА ДОВШЕ НА РОЗДАЧІ! ЗАВАНТАЖИВ САМ - ДАЙ ЗАВАНТАЖИТИ ІНШИМ!
   
Інші релізи
   Зачарований принц / Charming (2018) 720p Ukr/Eng 11FrYkT  4 / 0   2.22 GB   2018-11-26 22:38 
   Зачарований принц / Charming (2018) AVC Ukr/Eng 11FrYkT  8 / 0   1.45 GB   2018-11-26 22:32 
   Зачарований принц / Charming (2018) 1080p H.265 Ukr/Eng -Star-Lord-  1 / 0   3.38 GB   2018-11-09 16:48 
   Зачарований принц / Charming (2018) 1080p Ukr/Eng igor911  9 / 0   7.56 GB   2018-10-31 19:40 
   Зачарований принц / Charming (2018) igor911  7 / 0   1.45 GB   2018-10-28 09:40 
Ваш часовий пояс: GMT + 2 Години

Нова тема   Відповісти