Міднайт, Техас (Сезон 2, серії 1-4) / Midnight, Texas (Season 2, еpisodes 1-4) (2018)

Нові коментарі

Нова тема   Відповісти
Автор Повідомлення
DniproFilm 
Свій


З нами з: 10.10.18
Востаннє: 10.12.18
Повідомлень: 141

2018-10-27 15:20  
Міднайт, Техас (Сезон 2, серії 1-4) / Midnight, Texas (Season 2, еpisodes 1-4) (2018)

Міднайт, Техас (Сезон 2, серії 1-4) / Midnight, Texas (Season 2, еpisodes 1-4) (2018)


Жанр: фентезі, детектив, драма
Країна: США



Кінокомпанія / телеканал: David Janollari Entertainment, Hentemann Films, Universal TV
Режисер: Девід Соломон, Майрзі Алмас, Грег Біман
Актори/ролі озвучують: Джейсон Льюїс, Юл Васкес, Келлі В. Лучіо, Сара Рамос, Франсуа Арно, Аріель Кеббел, Паріса Фітц-Хенлі, Джоенн Кемп, Пітер Менса, Ділан Брюс та інші

Сюжет:
Події містичної драми розгорнуться в маленькому техаському містечку Міднайт, який став безпечним притулком для вампірів, відьом, екстрасенсів, кілерів та всіх інших, хто відрізняється від звичайних людей. Всіх їх, включаючи ясновидців, телепатів, янголів з крилами та іншу нечисть заслали в техаський діру, де вони змушені співіснувати в мирі та злагоді. Але одного разу там відбувається справжнісіньке вбивство, і тепер головному герою Манфреду доведеться розібратися, що трапилося, та зберегти мир.


Тривалість: 1 серія: ~ 44 хв. (цілком серій: 9)
Перелік серій

1. Head Games
2. The Monster of the Week is Patriarchy
3. To Witch Hell and Back
4. I Put a Spell on You
5. Drown the Sadness In Chardonnay
6. No More Mr. Nice Kai
7. Resting Witch Face
8. Patience is A Virtue
9. Yasss, Queen
Якість:
Відео:
кодек:
розмір кадру: 720x400
бітрейт: ~1800 кб/с

Аудіо # 1:
мова: українська
переклад: багатоголосий закадровий
кодек: 5.1
бітрейт: 384 кб/с

Джерело озвучення:
DniproFilm
Info

Video
ID : 0
Format : MPEG-4 Visual
Format profile : Advanced [email protected]
Format settings : BVOP2
Format settings, BVOP : 2
Format settings, QPel : No
Format settings, GMC : No warppoints
Format settings, Matrix : Default (H.263)
Muxing mode : Packed bitstream
Codec ID :
Codec ID/Hint :
Duration : 43 min 30 s
Bit rate : 1 777 kb/s
Width : 720 pixels
Height : 400 pixels
Display aspect ratio : 16:9
Frame rate : 23.976 (24000/1001) FPS
Color space : YUV
Chroma subsampling : 4:2:0
Bit depth : 8 bits
Scan type : Progressive
Compression mode : Lossy
Bits/(Pixel*Frame) : 0.257
Stream size : 553 MiB (82%)
Writing library : 67

Audio
ID : 1
Format : AC-3
Format/Info : Audio Coding 3
Commercial name : Dolby Digital
Codec ID : 2000
Duration : 43 min 30 s
Bit rate mode : Constant
Bit rate : 384 kb/s
Channel(s) : 6 channels
Channel positions : Front: L C R, Side: L R, LFE
Sampling rate : 48.0 kHz
Frame rate : 31.250 FPS (1536 SPF)
Bit depth : 16 bits
Compression mode : Lossy
Stream size : 120 MiB (18%)
Alignment : Aligned on interleaves
Interleave, duration : 42 ms (1.00 video frame)
Interleave, preload duratio : 512 ms
Service kind : Complete Main
Скріншоти


Увага, присутня відео та аудіореклама.

Додано 4 серію.


Джерело: DniproFilm



Авторський реліз (завантажувати можна без реєстрації)
 Трекер:    Зареєстрований   

Завантажити / скачати серіал українською



відео для новачків



 Зареєстрований:   2018-12-06 14:34
 Розмір:   2.6 GB 
 Оцінка серіалу:   8.5/10 (Голосів: 10)
   
tetna 
VIP


З нами з: 21.11.14
Востаннє: 10.12.18
Повідомлень: 544

2018-10-27 17:25  
А ви - Дніпрофільм - на честь річки чи знаходитесь у м.Дніпрі?
roma28031972 
Новенький


З нами з: 28.06.16
Востаннє: 10.12.18
Повідомлень: 2

2018-10-27 20:00  
скажіть будь ласка, а перший сезон буде?
Estranded 
VIP


З нами з: 09.02.14
Востаннє: 10.12.18
Повідомлень: 1234

2018-10-28 10:36  
Можна семпл озвучення?
igor911 
Відео Гуртом
Відео Гуртом


З нами з: 18.01.08
Востаннє: 10.12.18
Повідомлень: 11554

2018-10-28 10:51  
Estranded написано:
Можна семпл озвучення?

ознайомитись можна на сайтах онлайн-перегляду, наприклад на uafilm.tv

ua2004 
Відео Гуртом - фільмокрай
Відео Гуртом - фільмокрай


З нами з: 31.01.08
Востаннє: 10.12.18
Повідомлень: 3206

2018-11-05 01:12  
Судячи із семплу, чоловічі ролі озвучують актори з телебачення: Олег Лепенець та Володимир Терещук.
respect14 
VIP


З нами з: 26.01.11
Востаннє: 10.12.18
Повідомлень: 555

2018-11-05 15:44  
Для чого ці написи Дніпрофільм...? Можна ж якось інакше про себе повідомити...наприклад щоб кожні 10-15 зявляся невеличкий напис та й усе
Victor_Scythian 
Поважний учасник


З нами з: 06.01.17
Востаннє: 10.12.18
Повідомлень: 225

2018-11-06 23:38  
О Боже, знову якась хер....я про вампірів... 1/10
DniproFilm 
Свій


З нами з: 10.10.18
Востаннє: 10.12.18
Повідомлень: 141

2018-11-20 09:57  
РЕЛІЗ ОНОВЛЕНО! (19.11.2018) Додано 3 серію.

sinpavla 
Свій


З нами з: 15.06.12
Востаннє: 10.12.18
Повідомлень: 87

2018-11-25 09:48  
славетний тексес мені нагадує НЕНЬКУ
tetna 
VIP


З нами з: 21.11.14
Востаннє: 10.12.18
Повідомлень: 544

2018-11-25 16:43  
DniproFilm
а ви на питання принципово не відповідаєте?

DniproFilm 
Свій


З нами з: 10.10.18
Востаннє: 10.12.18
Повідомлень: 141

2018-12-06 14:35  
РЕЛІЗ ОНОВЛЕНО! (06.12.2018) Додано 4 серію.

Ваш часовий пояс: GMT + 2 Години

Нова тема   Відповісти