Міднайт, Техас (Сезон 2, серії 1-4) / Midnight, Texas (Season 2, еpisodes 1-4) (2018) 1080p Ukr/Eng

Нові коментарі

Нова тема   Відповісти
Автор Повідомлення
DniproFilm 
Свій


З нами з: 10.10.18
Востаннє: 11.12.18
Повідомлень: 147

2018-10-27 15:20  
Міднайт, Техас (Сезон 2, серії 1-4) / Midnight, Texas (Season 2, еpisodes 1-4) (2018) 1080p Ukr/Eng

Міднайт, Техас (Сезон 2, серії 1-4) / Midnight, Texas (Season 2, еpisodes 1-4) (2018) 1080p Ukr/Eng


Жанр: фентезі, детектив, драма
Країна: США



Кінокомпанія / телеканал: David Janollari Entertainment, Hentemann Films, Universal TV
Режисер: Девід Соломон, Майрзі Алмас, Грег Біман
Актори/ролі озвучують: Джейсон Льюїс, Юл Васкес, Келлі В. Лучіо, Сара Рамос, Франсуа Арно, Аріель Кеббел, Паріса Фітц-Хенлі, Джоенн Кемп, Пітер Менса, Ділан Брюс та інші

Сюжет:
Події містичної драми розгорнуться в маленькому техаському містечку Міднайт, який став безпечним притулком для вампірів, відьом, екстрасенсів, кілерів та всіх інших, хто відрізняється від звичайних людей. Всіх їх, включаючи ясновидців, телепатів, янголів з крилами та іншу нечисть заслали в техаський діру, де вони змушені співіснувати в мирі та злагоді. Але одного разу там відбувається справжнісіньке вбивство, і тепер головному герою Манфреду доведеться розібратися, що трапилося, та зберегти мир.


Тривалість: 1 серія: ~ 44 хв. (цілком серій: 9)
Перелік серій

1. Head Games
2. The Monster of the Week is Patriarchy
3. To Witch Hell and Back
4. I Put a Spell on You
5. Drown the Sadness In Chardonnay
6. No More Mr. Nice Kai
7. Resting Witch Face
8. Patience is A Virtue
9. Yasss, Queen
Якість:
Відео:
кодек:
розмір кадру: 1920x1080
бітрейт: ~7000 кб/с

Аудіо # 1:
мова: українська
переклад: багатоголосий закадровий
кодек: 5.1
бітрейт: 384 кб/с

Аудіо # 2:
мова: англійська
переклад: оригінал
кодек: 5.1
бітрейт: 640 кб/с

Джерело озвучення:
DniproFilm
Info

Video
ID : 1
Format : AVC
Format/Info : Advanced Video Codec
Format profile : [email protected]
Format settings : CABAC / 4 Ref Frames
Format settings, CABAC : Yes
Format settings, ReFrames : 4 frames
Codec ID : V_MPEG4/ISO/AVC
Duration : 43 min 30 s
Bit rate : 6 883 kb/s
Width : 1 920 pixels
Height : 1 080 pixels
Display aspect ratio : 16:9
Frame rate mode : Constant
Frame rate : 23.976 (24000/1001) FPS
Standard : NTSC
Color space : YUV
Chroma subsampling : 4:2:0
Bit depth : 8 bits
Scan type : Progressive
Bits/(Pixel*Frame) : 0.138
Stream size : 2.09 GiB (87%)
Language : English
Default : Yes
Forced : No
Color range : Limited
Color primaries : BT.709
Transfer characteristics : BT.709
Matrix coefficients : BT.709

Audio #1
ID : 2
Format : AC-3
Format/Info : Audio Coding 3
Commercial name : Dolby Digital
Codec ID : A_AC3
Duration : 43 min 30 s
Bit rate mode : Constant
Bit rate : 384 kb/s
Channel(s) : 6 channels
Channel positions : Front: L C R, Side: L R, LFE
Sampling rate : 48.0 kHz
Frame rate : 31.250 FPS (1536 SPF)
Bit depth : 16 bits
Compression mode : Lossy
Stream size : 120 MiB (5%)
Title : DniproFilm
Language : Ukrainian
Service kind : Complete Main
Default : Yes
Forced : No

Audio #2
ID : 3
Format : AC-3
Format/Info : Audio Coding 3
Codec ID : A_AC3
Duration : 42 min 55 s
Bit rate : 640 kb/s
Channel(s) : 6 channels
Sampling rate : 48.0 kHz
Frame rate : 31.250 FPS (1536 SPF)
Compression mode : Lossy
Stream size : 196 MiB (8%)
Language : English
Default : No
Forced : No
Скріншоти


Увага, присутня відео та аудіореклама.

Додано 4 серію.


Джерело: DniproFilm



Авторський реліз (завантажувати можна без реєстрації)
 Трекер:    Зареєстрований   

Завантажити / скачати серіал українською



відео для новачків



 Зареєстрований:   2018-12-06 14:34
 Розмір:   9.57 GB 
 Оцінка серіалу:   8.5/10 (Голосів: 6)
   
SurFutur 
Свій


З нами з: 12.03.15
Востаннє: 11.12.18
Повідомлень: 113

2018-10-27 15:44  
Не знаю, як сам серіал, але така оперативність вражає!
Щоправда, опис, думаю, треба дещо виправити, адже зараз він схожий на ґуґл-транслейт.

DniproFilm 
Свій


З нами з: 10.10.18
Востаннє: 11.12.18
Повідомлень: 147

2018-10-27 16:01  
SurFutur
Так, поспішали з релізом. Красно дякуємо за відгук.

Петров Микола 
VIP


З нами з: 15.08.14
Востаннє: 10.12.18
Повідомлень: 367

2018-10-27 17:07  
Панове, я кайфую від акторів озвучення які у вас працюють.
DniproFilm 
Свій


З нами з: 10.10.18
Востаннє: 11.12.18
Повідомлень: 147

2018-11-04 16:32  
РЕЛІЗ ОНОВЛЕНО! (04.01.2018) Додано 2 серію.

DniproFilm 
Свій


З нами з: 10.10.18
Востаннє: 11.12.18
Повідомлень: 147

2018-11-20 09:56  
РЕЛІЗ ОНОВЛЕНО! (19.11.2018) Додано 3 серію.

DniproFilm 
Свій


З нами з: 10.10.18
Востаннє: 11.12.18
Повідомлень: 147

2018-12-06 14:35  
РЕЛІЗ ОНОВЛЕНО! (06.12.2018) Додано 4 серію.

Ваш часовий пояс: GMT + 2 Години

Нова тема   Відповісти