Пан Володийовський / Pan Wolodyjowski (1969) 1080p 2xUkr/Pol | Sub Ukr/Eng

Нові коментарі

Нова тема   Відповісти
Автор Повідомлення
staf777 
Відео Гуртом - підтримка та поширення
Відео Гуртом - підтримка та поширення


З нами з: 16.11.16
Востаннє: 21.09.20
Повідомлень: 4022

2018-10-27 15:18  
Пан Володийовський / Pan Wolodyjowski (1969) 1080p 2xUkr/Pol | Sub Ukr/Eng

Пан Володийовський / Pan Wolodyjowski (1969) 1080p 2xUkr/Pol | Sub Ukr/Eng


Жанр: історичний, драма
Країна: Польща



Кінокомпанія: Mosfilm, Film Polski, Zespol Filmowy "Kamera"
Режисер: Єжи Гофман
Сюжет:
Фільм є екранізацією однойменного твору Генрика Сенкевича і останньою частиною відомої трилогії «Вогнем і мечем», «Потоп», «Пан Володийовський». Фільм зображує славетні сторінки польської історії, розповідаючи про боротьбу Польщі у 1668 році з турецькою навалою.


Тривалість: 02:28:33
Якість:
Відео:
кодек:
розмір кадру: 1920x816
бітрейт: 14.3 Mб/с

Аудіо # 1:
мова: українська
переклад: двоголосий закадровий
кодек: 2.0
бітрейт: 192 кб/с

Аудіо # 2:
мова: українська
переклад: двоголосий закадровий
кодек: 2.0
бітрейт: 192 кб/с

Аудіо # 3:
мова: польська
переклад: оригінал
кодек: 5.1
бітрейт: 448 кб/с

Субтитри:
мова: англійська
тип: програмні (м'які)
формат: *.srt
Info
General
Unique ID : 198187700763450905310321773013620886198 (0x951990107263786DF5F33B580FE60AB6)
Complete name : N:\Фільми HD\Історичний\Pan Wolodyjowski (1969) [2UA][POL][Hurtom].
Format :
Format version : Version 4 / Version 2
File size : 15.7 GiB
Duration : 2 h 28 min
Overall bit rate : 15.1 Mb/s
Movie name : Pan Wolodyjowski (1969) [2UA][POL][Hurtom]
Encoded date : UTC 2018-10-27 07:46:28
Writing application : v24.0.0 ('Beyond The Pale') 64-bit
Writing library : libebml v1.3.6 + v1.4.9
Cover : Yes
Attachments : cover.jpg

Video
ID : 1
Format : AVC
Format/Info : Advanced Video Codec
Format profile : [email protected]
Format settings : CABAC / 5 Ref Frames
Format settings, CABAC : Yes
Format settings, ReFrames : 5 frames
Codec ID : V_MPEG4/ISO/AVC
Duration : 2 h 28 min
Bit rate : 14.3 Mb/s
Width : 1 920 pixels
Height : 816 pixels
Display aspect ratio : 2.35:1
Frame rate mode : Constant
Frame rate : 25.000 FPS
Color space : YUV
Chroma subsampling : 4:2:0
Bit depth : 8 bits
Scan type : Progressive
Bits/(Pixel*Frame) : 0.365
Stream size : 14.8 GiB (94%)
Writing library : core 146 r2538 121396c
Encoding settings : cabac=1 / ref=5 / deblock=1:-1:-1 / analyse=0x3:0x113 / me=umh / subme=11 / psy=1 / psy_rd=1.11:0.15 / mixed_ref=1 / me_range=32 / chroma_me=1 / trellis=2 / 8x8dct=1 / cqm=0 / deadzone=21,11 / fast_pskip=0 / chroma_qp_offset=-3 / threads=12 / lookahead_threads=3 / sliced_threads=0 / nr=0 / decimate=1 / interlaced=0 / bluray_compat=0 / constrained_intra=0 / bframes=12 / b_pyramid=2 / b_adapt=2 / b_bias=0 / direct=3 / weightb=1 / open_gop=0 / weightp=2 / keyint=250 / keyint_min=25 / scenecut=40 / intra_refresh=0 / rc=2pass / mbtree=0 / bitrate=14300 / ratetol=1.0 / qcomp=0.60 / qpmin=0 / qpmax=69 / qpstep=4 / cplxblur=20.0 / qblur=0.5 / ip_ratio=1.40 / pb_ratio=1.30 / aq=2:1.00
Language : Polish
Default : Yes
Forced : No

Audio #1
ID : 2
Format : AC-3
Format/Info : Audio Coding 3
Codec ID : A_AC3
Duration : 2 h 28 min
Bit rate mode : Constant
Bit rate : 192 kb/s
Channel(s) : 2 channels
Channel positions : Front: L R
Sampling rate : 48.0 kHz
Frame rate : 31.250 FPS (1536 SPF)
Bit depth : 16 bits
Compression mode : Lossy
Stream size : 204 MiB (1%)
Title : [UA-DVO-ENTER-FILM]
Language : Ukrainian
Service kind : Complete Main
Default : Yes
Forced : Yes

Audio #2
ID : 3
Format : AC-3
Format/Info : Audio Coding 3
Codec ID : A_AC3
Duration : 2 h 28 min
Bit rate mode : Constant
Bit rate : 192 kb/s
Channel(s) : 2 channels
Channel positions : Front: L R
Sampling rate : 48.0 kHz
Frame rate : 31.250 FPS (1536 SPF)
Bit depth : 16 bits
Compression mode : Lossy
Stream size : 204 MiB (1%)
Title : [UA-DVO-UA1]
Language : Ukrainian
Service kind : Complete Main
Default : No
Forced : No

Audio #3
ID : 4
Format : AC-3
Format/Info : Audio Coding 3
Codec ID : A_AC3
Duration : 2 h 28 min
Bit rate mode : Constant
Bit rate : 448 kb/s
Channel(s) : 2 channels
Channel positions : Front: L R
Sampling rate : 48.0 kHz
Frame rate : 31.250 FPS (1536 SPF)
Bit depth : 16 bits
Compression mode : Lossy
Stream size : 476 MiB (3%)
Language : Polish
Service kind : Complete Main
Default : No
Forced : No

Text
ID : 5
Format : UTF-8
Codec ID : S_TEXT/UTF8
Codec ID/Info : UTF-8 Plain Text
Duration : 2 h 26 min
Bit rate : 33 b/s
Count of elements : 1134
Stream size : 36.3 KiB (0%)
Language : English
Default : No
Forced : No

Menu
00:00:00.000 : en:Chapter 01
00:10:03.440 : en:Chapter 02
00:19:58.200 : en:Chapter 03
00:25:36.280 : en:Chapter 04
00:38:40.760 : en:Chapter 05
00:49:31.640 : en:Chapter 06
01:00:16.640 : en:Chapter 07
01:15:06.400 : en:Chapter 08
01:24:47.040 : en:Chapter 09
01:36:39.080 : en:Chapter 10
01:45:44.160 : en:Chapter 11
01:54:11.440 : en:Chapter 12
02:09:56.040 : en:Chapter 13
02:19:00.880 : en:Chapter 14
Скріншоти




Аудіо #1 - krigg070
Аудіо #2 - кіномеханік, karvai0, _oles

Джерело: &
Особиста оцінка: 8 - золота класика
Пан Володийовський / Pan Wolodyjowski (1969) 1080p 2xUkr/Pol | Sub Ukr/Eng
Пан Володийовський / Pan Wolodyjowski (1969) 1080p 2xUkr/Pol | Sub Ukr/Eng


Срібний реліз (на рейтинг впливає 50% завантаженого)
 Трекер:    Зареєстрований   

Завантажити / скачати фільм українською



відео для новачків



 Зареєстрований:   2018-10-27 15:18
 Розмір:   15.7 GB 
 Оцінка фільму:   5.1/10 (Голосів: 9)
   
Інші релізи
І-р 
Свій


З нами з: 21.07.16
Востаннє: 21.09.20
Повідомлень: 102

2018-10-27 17:47  
Знову Хмельницький буде названий зрадником, а козаки розбійниками?
Тут не люблять москалів і московське, а хіба поляки і польське сильно відрізняються від московського?

Ваш часовий пояс: GMT + 2 Години

Нова тема   Відповісти