Формула 1. Сезон 2018. Етап 19. Гран-Прі Мексики. 1-3 практика (26.10.2018) HDTV 1080i

Нові коментарі

Нова тема   Відповісти
Останній раз роздавалося sergiyko.5 (2019-03-03)
Автор Повідомлення
sergiyko.5 
VIP


З нами з: 25.02.16
Востаннє: 23.10.20
Повідомлень: 3611

2018-10-27 10:00  
Формула 1. Сезон 2018. Етап 19. Гран-Прі Мексики. 1-3 практика (26.10.2018) HDTV 1080i


Формула 1. Сезон 2018. Етап 19. Гран-Прі Мексики. 1-3 практика (26.10.2018) HDTV 1080i

Жанр: Перегони Формула 1
Країна: Мексика
Телеканал: Перший автомобільний
Коментатор: Павло Воробйов

Опис:
Вільна практика перша та друга дев'ятнадцятого етапу Гран-Прі Мексики 2018 року відбулась 26 жовтня 2018 року о 18 та 21 годині та третя 27 жовтня о 18 годині за київським часом.


Тривалість: 01:34:35 + 01:39:30 + 01:09:15
Якість: HDTV(Practice 2-3), IPTV(Practice 1)

Відео:кодек: розмір кадру: 1920 х 1080 бітрейт: 5500 кб/с
Аудіо: мова: українська кодек: 2.0 бітрейт: 128 кб/с

Примітка: не записалось останніх п'ять хвилин першої практики.
Про файл:
General
Unique ID : 110207219925634111607312241917267419924 (0x52E923745BDC42F2C5FE3911C2322314)
Complete name : G:\Torrents2\SPORT\Formula 1\F1.2018.19.Mexico.Practice.1080i.HDTV\F1.2018.19.Mexico.Practice.2.1080i.HDTV.
Format :
Format version : Version 4
File size : 3.95 GiB
Duration : 1 h 39 min
Overall bit rate : 5 688 kb/s
Encoded date : UTC 2018-10-27 06:26:44
Writing application : v28.1.0 ('Morning Child') 64-bit
Writing library : libebml v1.3.6 + v1.4.9

Video
ID : 1
Format : AVC
Format/Info : Advanced Video Codec
Format profile : [email protected]
Format settings : CABAC / 4 Ref Frames
Format settings, CABAC : Yes
Format settings, ReFrames : 4 frames
Codec ID : V_MPEG4/ISO/AVC
Duration : 1 h 39 min
Bit rate : 5 560 kb/s
Width : 1 920 pixels
Height : 1 080 pixels
Display aspect ratio : 16:9
Frame rate mode : Variable
Frame rate : 27.840 FPS
Original frame rate : 25.000 FPS
Standard : Component
Color space : YUV
Chroma subsampling : 4:2:0
Bit depth : 8 bits
Scan type : MBAFF
Scan type, store method : Interleaved fields
Scan order : Top Field First
Bits/(Pixel*Frame) : 0.096
Stream size : 3.86 GiB (98%)
Language : English
Default : Yes
Forced : No
Color range : Limited
Color primaries : BT.709
Transfer characteristics : BT.709
Matrix coefficients : BT.709

Audio
ID : 2
Format : LC
Format/Info : Advanced Audio Codec Low Complexity
Codec ID : A_AAC-2
Duration : 1 h 39 min
Bit rate : 125 kb/s
Channel(s) : 2 channels
Channel layout : L R
Sampling rate : 48.0 kHz
Frame rate : 46.875 FPS (1024 SPF)
Compression mode : Lossy
Stream size : 89.2 MiB (2%)
Title : Павло Воробйов
Language : Ukrainian
Default : Yes
Forced : No
Скріншоти:


Автор запису: sergiyko


Бронзовий реліз (на рейтинг впливає 75% завантаженого)
 Трекер:    Зареєстрований   

Завантажити / скачати торрент



відео для новачків



 Зареєстрований:   2018-10-27 19:29
 Розмір:   10.7 GB 
 Оцінка:   10/10 (Голосів: 5)
   
sergiyko.5 
VIP


З нами з: 25.02.16
Востаннє: 23.10.20
Повідомлень: 3611

2018-10-27 19:29  
Додав третю практику.
Umbrella.Corps 
Свій


З нами з: 09.04.17
Востаннє: 27.09.20
Повідомлень: 60

2018-10-27 20:31  
sergiyko.5
Дякую. Дуже б хотілося оперативно квалу, що б сьогодні встигнути подивитися)

Ваш часовий пояс: GMT + 2 Години

Нова тема   Відповісти