Ераґон / Ерагон / Eragon (2006) 1080p 2xUkr/Eng | Sub Ukr/Eng

Нові коментарі

Нова тема   Відповісти
Автор Повідомлення
staf777 
Відео Гуртом - підтримка та поширення
Відео Гуртом - підтримка та поширення


З нами з: 16.11.16
Востаннє: 24.09.20
Повідомлень: 4034

2018-10-26 22:38  
Ераґон / Ерагон / Eragon (2006) 1080p 2xUkr/Eng | Sub Ukr/Eng

Ераґон / Ерагон / Eragon (2006) 1080p 2xUkr/Eng | Sub Ukr/Eng


Жанр: фентезі, пригодницький, бойовик, сімейний
Країна: США, Велика Британія, Угорщина



Кінокомпанія: 20th Century Fox Film Corporation
Режисер: Стефен Фенгмейер / Stephen Fengmeyer
Актори: Едвард Спелірс, Джеремі Айронс, Сієнна Гіллорі, Роберт Карлайл, Джон Малковіч, Гаррет Хедлунд, Алан Армстронг, Крістофер Іган, Гарі Льюїс, Джимон Хонсу

Сюжет:
У містичних лісах рідної Алаґезії сільський хлопчик на ім'я Ераґон знаходить дивної краси блакитний камінь. Щоб допомогти своїй родині пережити важку зиму, він сподівається сторгувати його на продукти. Але на його подив, те, що здавалося каменем, виявляється яйцем, з якого вилуплюється дракон Сафіра. Дотепер рід драконів уважався вимерлим, і Ераґон розуміє, що його знахідка - це величезне відкриття. Але в одну з ночей життя цього простого хлопчиська повністю перевертається - його родину жорстоко вбивають темні сили, які блукають королівством. Від старого казкаря Брома Ераґон дізнається про своє особливе призначення - стати наїзником драконів. І тепер, маючи тільки стародавню шпагу у своєму розпорядженні, Ераґон разом зі своєю вірною подругою Сафірою намагається допомогти імперії, що загрузла у чварах, охоплена війною між людьми, ельфами, гоблінами та іншими таємничими істотами. Найнебезпечніший ворог - це злий король Галбатроікс, у минулому також наїзник драконів, що пішов шляхом зла і жадібності й, знищивши всіх легендарних наїзників, надовго позбавив Алаґезію захисту. Ераґон - це остання надія королівства на порятунок від влади зла.


Тривалість: 01:43:17
Якість:
Відео:
кодек:
розмір кадру: 1920x816
бітрейт: 9506 кб/с

Аудіо # 1:
мова: українська
переклад: професійний дубльований
кодек: 5.1
бітрейт: 384 кб/с

Аудіо # 2:
мова: українська
переклад: багатоголосий закадровий
кодек: 2.0
бітрейт: 192 кб/с

Аудіо # 3:
мова: англійська
переклад: оригінал
кодек: 5.1
бітрейт: 640 кб/с

Субтитри # 1:
мова: українська
тип: програмні (м'які)
формат: *.srt

Субтитри # 2:
мова: англійська
тип: програмні (м'які)
формат: *.srt
Info
General
Unique ID : 280016171113544260152956601989273305098 (0xD2A9272389D6F46344EA2983A7F1400A)
Complete name : S:\Фільми в HD\Фентезі\Eragon (2006) 1080p [2xUA][ENG][Hurtom].
Format :
Format version : Version 4 / Version 2
File size : 7.74 GiB
Duration : 1 h 43 min
Overall bit rate : 10.7 Mb/s
Movie name : Eragon (2006) 1080p [2xUA][ENG][Hurtom]
Encoded date : UTC 2018-10-28 07:07:31
Writing application : v24.0.0 ('Beyond The Pale') 64-bit
Writing library : libebml v1.3.6 + v1.4.9
Cover : Yes
Attachments : cover.jpg

Video
ID : 1
Format : AVC
Format/Info : Advanced Video Codec
Format profile : [email protected]
Format settings : CABAC / 9 Ref Frames
Format settings, CABAC : Yes
Format settings, ReFrames : 9 frames
Codec ID : V_MPEG4/ISO/AVC
Duration : 1 h 43 min
Bit rate : 9 506 kb/s
Width : 1 920 pixels
Height : 816 pixels
Display aspect ratio : 2.35:1
Frame rate mode : Constant
Frame rate : 23.976 FPS
Color space : YUV
Chroma subsampling : 4:2:0
Bit depth : 8 bits
Scan type : Progressive
Bits/(Pixel*Frame) : 0.253
Stream size : 6.86 GiB (89%)
Writing library : core 54 svn-635M
Encoding settings : cabac=1 / ref=6 / deblock=1:-2:-2 / analyse=0x3:0x133 / me=umh / subme=7 / brdo=1 / mixed_ref=1 / me_range=16 / chroma_me=1 / trellis=1 / 8x8dct=1 / cqm=0 / deadzone=21,11 / chroma_qp_offset=0 / threads=2 / nr=0 / decimate=0 / mbaff=0 / bframes=3 / b_pyramid=1 / b_adapt=1 / b_bias=0 / direct=3 / wpredb=1 / bime=1 / keyint=250 / keyint_min=25 / scenecut=40(pre) / rc=2pass / bitrate=9506 / ratetol=1.0 / rceq='blurCplx^(1-qComp)' / qcomp=0.60 / qpmin=10 / qpmax=51 / qpstep=4 / cplxblur=20.0 / qblur=0.5 / ip_ratio=1.40 / pb_ratio=1.30
Default : Yes
Forced : No

Audio #1
ID : 2
Format : AC-3
Format/Info : Audio Coding 3
Codec ID : A_AC3
Duration : 1 h 43 min
Bit rate mode : Constant
Bit rate : 384 kb/s
Channel(s) : 6 channels
Channel positions : Front: L C R, Side: L R, LFE
Sampling rate : 48.0 kHz
Frame rate : 31.250 FPS (1536 SPF)
Bit depth : 16 bits
Compression mode : Lossy
Stream size : 284 MiB (4%)
Title : [UA-DUB]
Language : Ukrainian
Service kind : Complete Main
Default : Yes
Forced : Yes

Audio #2
ID : 3
Format : AC-3
Format/Info : Audio Coding 3
Codec ID : A_AC3
Duration : 1 h 43 min
Bit rate mode : Constant
Bit rate : 192 kb/s
Channel(s) : 2 channels
Channel positions : Front: L R
Sampling rate : 48.0 kHz
Frame rate : 31.250 FPS (1536 SPF)
Bit depth : 16 bits
Compression mode : Lossy
Stream size : 142 MiB (2%)
Title : [UA-TET]
Language : Ukrainian
Service kind : Complete Main
Default : No
Forced : No

Audio #3
ID : 4
Format : AC-3
Format/Info : Audio Coding 3
Codec ID : A_AC3
Duration : 1 h 43 min
Bit rate mode : Constant
Bit rate : 640 kb/s
Channel(s) : 6 channels
Channel positions : Front: L C R, Side: L R, LFE
Sampling rate : 48.0 kHz
Frame rate : 31.250 FPS (1536 SPF)
Bit depth : 16 bits
Compression mode : Lossy
Stream size : 473 MiB (6%)
Title : DD 5.1 640 Kbps
Language : English
Service kind : Complete Main
Default : No
Forced : No

Text #1
ID : 5
Format : UTF-8
Codec ID : S_TEXT/UTF8
Codec ID/Info : UTF-8 Plain Text
Duration : 1 h 43 min
Bit rate : 54 b/s
Count of elements : 789
Stream size : 41.1 KiB (0%)
Language : Ukrainian
Default : No
Forced : No

Text #2
ID : 6
Format : UTF-8
Codec ID : S_TEXT/UTF8
Codec ID/Info : UTF-8 Plain Text
Duration : 1 h 43 min
Bit rate : 33 b/s
Count of elements : 790
Stream size : 25.3 KiB (0%)
Language : English
Default : No
Forced : No





Запис озвучення 1+1: xslim
Зведення звуку: Hanway
Сканування офіційного українського постера: mitrandisc

Джерело: &
Особиста оцінка: 8 - мені сподобалося
Ераґон / Ерагон / Eragon (2006) 1080p 2xUkr/Eng | Sub Ukr/Eng

Ераґон / Ерагон / Eragon (2006) 1080p 2xUkr/Eng | Sub Ukr/Eng


 Трекер:    Зареєстрований   

Завантажити / скачати фільм українською



відео для новачків



 Зареєстрований:   2018-10-28 10:43
 Розмір:   7.74 GB 
 Оцінка фільму:   9.1/10 (Голосів: 10)
   
Інші релізи
   Ераґон / Ерагон / Eragon (2006) AVC 2xUkr/Eng | Sub Ukr/Eng staf777  1 / 0   2.87 GB   2018-10-30 21:37 
   Ераґон / Ерагон / Eragon (2006) 2xUkr/Eng | Sub Ukr/Eng НТН  0 / 0   2.18 GB   2015-04-01 08:31 
   Ераґон / Ерагон / Eragon (2006) 720p 2xUkr/Eng | Sub Ukr/Eng Hanway  4 / 0   4.62 GB   2014-07-23 12:11 
   Ераґон / Ерагон / Eragon (2006) 2xUkr patriot2305  3 / 0   1.6 GB   2013-08-12 19:47 
igor911 
Модератор відео


З нами з: 18.01.08
Востаннє: 25.09.20
Повідомлень: 15006

2018-10-26 22:43  
staf777, вкажи джерела укр. доріжок і додай укр/ориг. субтитри.
staf777 
Відео Гуртом - підтримка та поширення
Відео Гуртом - підтримка та поширення


З нами з: 16.11.16
Востаннє: 24.09.20
Повідомлень: 4034

2018-10-26 23:01  
Саби завтра
https://toloka.to/t64659
щось ні як не можу завантажити там саби окремим файлом а то вантажити 720 щоб тільки витягти саби не дуже хочеться ...
Нарешті завантажив саби ...
Оновив торент додав саби

Ваш часовий пояс: GMT + 2 Години

Нова тема   Відповісти