Законослухняний громадянин (Режисерська версія) / Law Abiding Citizen [Unrated Director's Cut] (2009) AVC Ukr/Eng | Sub Eng

Нові коментарі

Нова тема   Відповісти
Автор Повідомлення
staf777 
Відео Гуртом - підтримка та поширення
Відео Гуртом - підтримка та поширення


З нами з: 16.11.16
Востаннє: 23.04.19
Повідомлень: 2284

2018-10-26 10:57  
Законослухняний громадянин (Режисерська версія) / Law Abiding Citizen [Unrated Director's Cut] (2009) AVC Ukr/Eng | Sub Eng



Оригінальні постери:


Жанр: трилер, драма, кримінальний
Країна: США



Кінокомпанія: Film Department, The, Gerard Butler Alan Siegel Entertainment, Warp Films, Evil Twins (I)
Режисер: Ф. Гері Грей
Актори: Джерард Батлер / Gerard Butler, Джеймі Фокс / Jamie Foxx, Колм Міні / Colm Meaney, Брюс МакГілл / Bruce McGill, Леслі Бібб / Leslie Bibb, Майкл Ірбі / Michael Irby, Грегори Ітцін / Gregory Itzin, Реджина Холл / Regina Hall,
Емеральд-Енжел Янг / Emerald-Angel Young, Крістіан Столте / Christian Stolte та інші

Сюжет:
Законослухняний мешканець Філадельфії Клайд Шелтон (Джерард Батлер) втрачає сім'ю внаслідок бандитського нападу. Але коли злочинці опинилися в руках правосуддя, з'ясувалося, що юридичній Системі зручніше піти на співпрацю з одним із бандитів, щоб дати вищу міру покарання іншому.

Помічник окружного прокурора Нік Райс (Джеймі Фокс) йде на цю співпрацю зі злочинцем всупереч протестам обуреного Шелтона, який свято вірує у бездоганність Закону. Але його правами знехтували. І тоді невідомий месник починає творити власну розправу над вбивцями. Нік Райс достатньо швидко знаходить його. Це. Клайд Шелтон. Райсу здається, що йому неважко добитися визнання від роздавленого сімейною трагедією Клайда.

Яке ж здивування всіх працівників Системи, коли вони виявляють, що навіть запроторена у в'язницю, ця людина здатна на найжорстокішу і витонченішу помсту. Більш того, вони виявилися абсолютно безсилі перед геніальною грою і смертоносними ударами ізольованого в одиночці Шелтона! Законослухняний громадянин почав безжальну війну проти Системи. І справа зовсім не в помсті...


Рейтинг MPAA: NC-17 - особам до 17 років перегляд заборонено
Вікова категорія: 18+

Відмінності театральної та розширеної режисерської версії


Тривалість: 01:58:06
Якість: AVC
Відео:
кодек:
розмір кадру: 1024х426
бітрейт: 2357 кбіт/с

Аудіо # 1: - на неперекладені епізоди режисерської версії є форсовані субтитри.
мова: українська
переклад: багатоголосий закадровий - Творче об’єднання «Дія»
кодек: 5.1
бітрейт: 448 кбіт/с
Інформація про озвучення
Фільм озвучено Творчим об’єднанням «Дія» для Top Film Distribution у 2009 році (ця ж озвучка була по 1+1)
Переклад: Сергій Ковальчук
Ролі озвучили: Джерард Батлер — Михайло Жонін, Джеймі Фокс — Володимир Терещук, Реджина Голл — Ольга Радчук, Брюс Маꥳлл — Євген Пашин, написи і назву фільму — Дмитро Завадський та інші.
Аудіо # 2:
мова: англійська
переклад: оригінал
кодек: 5.1
бітрейт: 448 кбіт/с

Субтитри #1:
мова: українська (форсовані, на неперекладені епізоди режисерської версії)
тип: програмні (м'які)
формат: *.srt

Субтитри #2:
мова: англійська (повні)
тип: програмні (м'які)
формат: *.srt

Збережено оригінальні розділи, як на Blu-ray.
Info

General
Unique ID : 239903860217263866187925841333981415189 (0xB47BCD856460407673DEA74624A20715)
Complete name : S:\Law Abiding Citizen [Unrated Director's Cut] (2009) AVC [UKR_ENG] [Hurtom].
Format :
Format version : Version 4 / Version 2
File size : 2.69 GiB
Duration : 1 h 58 min
Overall bit rate : 3 258 kb/s
Movie name : Law Abiding Citizen [Unrated Director's Cut] (2009) AVC [UKR_ENG] [Hurtom]
Encoded date : UTC 2018-10-26 12:27:36
Writing application : v24.0.0 ('Beyond The Pale') 64-bit
Writing library : libebml v1.3.6 + v1.4.9
Cover : Yes
Attachments : cover.jpg

Video
ID : 1
Format : AVC
Format/Info : Advanced Video Codec
Format profile : [email protected]
Format settings : CABAC / 9 Ref Frames
Format settings, CABAC : Yes
Format settings, ReFrames : 9 frames
Codec ID : V_MPEG4/ISO/AVC
Duration : 1 h 58 min
Bit rate : 2 357 kb/s
Width : 1 024 pixels
Height : 426 pixels
Display aspect ratio : 2.40:1
Frame rate mode : Constant
Frame rate : 23.976 (24000/1001) FPS
Color space : YUV
Chroma subsampling : 4:2:0
Bit depth : 8 bits
Scan type : Progressive
Bits/(Pixel*Frame) : 0.225
Stream size : 1.95 GiB (72%)
Title : by 0ptimus
Writing library : core 129 r2230 1cffe9f
Encoding settings : cabac=1 / ref=9 / deblock=1:-3:-3 / analyse=0x3:0x113 / me=umh / subme=11 / psy=1 / psy_rd=1.00:0.20 / mixed_ref=1 / me_range=48 / chroma_me=1 / trellis=2 / 8x8dct=1 / cqm=0 / deadzone=21,11 / fast_pskip=0 / chroma_qp_offset=-3 / threads=4 / lookahead_threads=1 / sliced_threads=0 / nr=0 / decimate=0 / interlaced=0 / bluray_compat=0 / constrained_intra=0 / bframes=13 / b_pyramid=2 / b_adapt=2 / b_bias=0 / direct=3 / weightb=1 / open_gop=0 / weightp=2 / keyint=240 / keyint_min=23 / scenecut=40 / intra_refresh=0 / rc_lookahead=40 / rc=2pass / mbtree=0 / bitrate=2357 / ratetol=1.0 / qcomp=0.60 / qpmin=0 / qpmax=69 / qpstep=4 / cplxblur=20.0 / qblur=0.5 / vbv_maxrate=50000 / vbv_bufsize=50000 / nal_hrd=none / ip_ratio=1.40 / pb_ratio=1.30 / aq=1:1.00
Language : English
Default : Yes
Forced : Yes

Audio #1
ID : 2
Format : AC-3
Format/Info : Audio Coding 3
Codec ID : A_AC3
Duration : 1 h 58 min
Bit rate mode : Constant
Bit rate : 448 kb/s
Channel(s) : 6 channels
Channel positions : Front: L C R, Side: L R, LFE
Sampling rate : 48.0 kHz
Frame rate : 31.250 FPS (1536 SPF)
Bit depth : 16 bits
Compression mode : Lossy
Stream size : 378 MiB (14%)
Language : Ukrainian
Service kind : Complete Main
Default : Yes
Forced : Yes

Audio #2
ID : 3
Format : AC-3
Format/Info : Audio Coding 3
Codec ID : A_AC3
Duration : 1 h 58 min
Bit rate mode : Constant
Bit rate : 448 kb/s
Channel(s) : 6 channels
Channel positions : Front: L C R, Side: L R, LFE
Sampling rate : 48.0 kHz
Frame rate : 31.250 FPS (1536 SPF)
Bit depth : 16 bits
Compression mode : Lossy
Stream size : 378 MiB (14%)
Language : English
Service kind : Complete Main
Default : No
Forced : No

Text #1
ID : 4
Format : UTF-8
Codec ID : S_TEXT/UTF8
Codec ID/Info : UTF-8 Plain Text
Duration : 1 h 48 min
Bit rate : 6 b/s
Count of elements : 115
Stream size : 5.14 KiB (0%)
Title : [Forced]
Language : Ukrainian
Default : Yes
Forced : Yes

Text #2
ID : 5
Format : UTF-8
Codec ID : S_TEXT/UTF8
Codec ID/Info : UTF-8 Plain Text
Duration : 1 h 53 min
Bit rate : 60 b/s
Count of elements : 1433
Stream size : 50.4 KiB (0%)
Language : English
Default : No
Forced : No

Menu
00:00:00.000 : :Home Invasion
00:03:51.898 : :What You Can Prove in Court
00:11:57.465 : :Lethal Injection
00:20:41.740 : :You Can't Fight Fate
00:29:01.239 : :Taken Into Custody
00:39:48.094 : :Make the Deal
00:43:34.527 : :Contempt of Court
00:50:00.914 : :Steak with All the Trimmings
00:58:59.827 : :Born Tactician
01:07:36.802 : :This Broken Thing
01:16:41.388 : :It's Gonna Be Biblical
01:23:25.917 : :City Under Siege
01:29:52.220 : :Subterranean Passage
01:37:04.944 : :Center of Gravity
01:42:41.238 : :I Don't Make Deals with Murderers
01:50:46.848 : :End Credits
01:58:05.828 : :End







Джерела та подяки: &
ріп відео, оригінальні звук та субтитри - 0ptimus (Kinozal) ; українська доріжка та субтитри - imonko - синхронізація під режисерську версію; українізований постер - офіційний + виправлено помилку у прізвищі Д.Батлера - igor911; фільмографії акторів та інформація про озвучення - Віктор та Neo777 (всі - Гуртом).


ЗАЛИШАЙТЕСЬ ЯКОМОГА ДОВШЕ НА РОЗДАЧІ!

СКАЧАВ САМ - ДАЙ СКАЧАТИ ІНШИМ


 Трекер:    Зареєстрований   

Завантажити / скачати фільм українською



відео для новачків



 Зареєстрований:   2018-10-28 11:43
 Розмір:   2.69 GB 
 Оцінка фільму:   9.9/10 (Голосів: 15)
   
Інші релізи
   Законослухняний громадянин / Law Abiding Citizen (2009) UHD Remux 2160p 4K HDR H.265 Ukr/Eng | Sub Eng Documentalist  1 / 0   52.59 GB   2018-12-06 06:53 
   Законослухняний громадянин [Режисерська версія] / Law Abiding Citizen [Unrated Director's Cut] (2009) Remux 1080p Ukr/Eng | Sub Eng staf777  9 / 0   26.25 GB   2018-10-26 14:31 
   Законослухняний громадянин [Режисерська версія] / Law Abiding Citizen [Unrated Director's Cut] (2009) 720p Ukr/Eng | Sub Eng igor911  10 / 0   7.21 GB   2014-11-09 00:08 
   Законослухняний громадянин / Law Abiding Citizen (2009) patriot2305  19 / 0   1.42 GB   2013-07-06 18:29 
   Законослухняний громадянин [Режисерська версія] / Law Abiding Citizen [Unrated Director's Cut] (2009) 1080p Ukr/Eng SuperContik  7 / 0   13 GB   2010-12-25 00:55 
   Законослухняний громадянин [Режисерська версія] / Law Abiding Citizen [Unrated Director's Cut] (2009) 720p-mini Ukr/Eng imonko  6 / 0   2.93 GB   2010-12-14 16:09 
   Законослухняний громадянин [Театральна версія] / Law Abiding Citizen [Theatrical Version] (2009) 720p Ukr/Rus/Eng | Sub Eng/Rus -Roman-  7 / 0   4.37 GB   2010-03-07 08:55 
   Законослухняний громадянин / Law Abiding Citizen (2009) Ukr/Eng MutuLI  3 / 0   2.14 GB   2010-02-18 23:11 
   Законослухняний громадянин (Законопокірний громадянин) / Law Abiding Citizen (2009) DVD9 Ukr/Rus/Eng romanforyou  0 / 0   5.65 GB   2010-01-22 00:24 
mrhyde 
Новенький


З нами з: 14.06.10
Востаннє: 23.04.19
Повідомлень: 7

2018-10-26 18:26  
Сподіваюсь в режисерській версії головний герой втік?
hudda 
Свій


З нами з: 07.06.09
Востаннє: 16.04.19
Повідомлень: 69

2018-10-27 03:01  
mrhyde написано:
Сподіваюсь в режисерській версії головний герой втік?

Ні )

bot 
робот


З нами з: 30.09.07
Востаннє: 26.05.05
Повідомлень: 21237

2018-10-28 11:42  
Тему перенесено з Анонси релізів до форуму Фільми


staf777

Ваш часовий пояс: GMT + 2 Години

Нова тема   Відповісти