Новобранець (Сезон 1, серії 1-7) / The Rookie (Season 1, episodes 1-7) (2018)

Нові коментарі

Нова тема   Відповісти
Автор Повідомлення
DniproFilm 
Свій


З нами з: 10.10.18
Востаннє: 11.12.18
Повідомлень: 147

2018-10-26 00:52  
Новобранець (Сезон 1, серії 1-7) / The Rookie (Season 1, episodes 1-7) (2018)

Новобранець (Сезон 1, серії 1-7) / The Rookie (Season 1, episodes 1-7) (2018)


Жанр: детектив, драма, комедія
Країна: США



Кінокомпанія / телеканал: eOne Television, Perfectmon Pictures, ABC Studios / ABC
Режисер: Алексі Гоулі
Актори/ролі озвучують: Натан Філліон, Ерік Вінтер, Річард Ті Джоунс, Аліса Діаз, Меліса Оніл, Мерседес Мейсон та інші

Сюжет:
Починати з чистого аркуша завжди нелегко, особливо для мешканця маленького містечка Джона Нолана. Після інциденту, який перевернув його життя, він вирішив здійснити давню мрію і приєднатися до поліції Лос-Анджелеса. Старого новачка зустрічають із зрозумілим скептицизмом, проте життєвий досвід, наполегливість та почуття гумора дають Джону перевагу.


Тривалість: 1 серія: ~ 44 хв. (цілком серій: 20)
Перелік серій

1. Pilot
2. Crash Course
3. The Good, the Bad and the Ugly
4. The Switch
5. The Roundup
6. The Hawke
7. The Ride Along
8. Time of Death
9. Episode 1.9
10. Episode 1.10
11. Episode 1.11
12. Episode 1.12
13. Episode 1.13
14. Episode 1.14
15. Episode 1.15
16. Episode 1.16
17. Episode 1.17
18. Episode 1.18
19. Episode 1.19
20. Episode 1.20
Якість:
Відео:
кодек:
розмір кадру: 720x400
бітрейт: ~1800 кб/с

Аудіо # 1:
мова: українська
переклад: багатоголосий закадровий
кодек: 5.1
бітрейт: 384 кб/с

Джерело озвучення:
DniproFilm
Info

Video
ID : 0
Format : MPEG-4 Visual
Format profile : Advanced [email protected]
Format settings : BVOP2
Format settings, BVOP : 2
Format settings, QPel : No
Format settings, GMC : No warppoints
Format settings, Matrix : Default (H.263)
Muxing mode : Packed bitstream
Codec ID :
Codec ID/Hint :
Duration : 43 min 32 s
Bit rate : 1 778 kb/s
Width : 720 pixels
Height : 400 pixels
Display aspect ratio : 16:9
Frame rate : 23.976 (24000/1001) FPS
Color space : YUV
Chroma subsampling : 4:2:0
Bit depth : 8 bits
Scan type : Progressive
Compression mode : Lossy
Bits/(Pixel*Frame) : 0.258
Stream size : 554 MiB (82%)
Writing library : 67

Audio
ID : 1
Format : AC-3
Format/Info : Audio Coding 3
Commercial name : Dolby Digital
Codec ID : 2000
Duration : 43 min 32 s
Bit rate mode : Constant
Bit rate : 384 kb/s
Channel(s) : 6 channels
Channel positions : Front: L C R, Side: L R, LFE
Sampling rate : 48.0 kHz
Frame rate : 31.250 FPS (1536 SPF)
Bit depth : 16 bits
Compression mode : Lossy
Stream size : 120 MiB (18%)
Alignment : Aligned on interleaves
Interleave, duration : 42 ms (1.00 video frame)
Interleave, preload duratio : 512 ms
Service kind : Complete Main
Скріншоти


Увага, присутня відео та аудіореклама.

Додано 7 серію.


Джерело: DniproFilm
Особиста оцінка: 9 - давно не бачив настільки якісне кіно



Авторський реліз (завантажувати можна без реєстрації)
 Трекер:    Зареєстрований   

Завантажити / скачати серіал українською



відео для новачків



 Зареєстрований:   2018-12-05 21:04
 Розмір:   4.56 GB 
 Оцінка серіалу:   9.3/10 (Голосів: 44)
   
SrGr 
Свій


З нами з: 15.01.12
Востаннє: 09.12.18
Повідомлень: 58

2018-10-29 23:36  
Чи є якась технічна можливість на початку і наприкінці серії прибрати рекламу "міжгалактичного" лохотрону? Наприклад, замінити її шматком оригінальної доріжки...

Зрозумів. Реклама в обмін на якісне озвучування. Гаразд...

t850 
Свій


З нами з: 03.10.12
Востаннє: 09.12.18
Повідомлень: 136

2018-10-31 16:44  
Навіщо в сам епізод вставляти рекламу? Кому воно цікаво і на початку/вкінці подивляться, а решта лише сварити буде.
Electroz 
Відео Гуртом - підтримка та поширення
Відео Гуртом - підтримка та поширення


З нами з: 18.09.14
Востаннє: 11.12.18
Повідомлень: 3174

2018-10-31 17:14  
t850
Без реклами не було б озвучення.

t850 
Свій


З нами з: 03.10.12
Востаннє: 09.12.18
Повідомлень: 136

2018-10-31 18:33  
Electroz
Очевидно, я не запитував навіщо реклама, я запитував навіщо всередині епізоду.

leicheman 
Відео Гуртом - підтримка та поширення
Відео Гуртом - підтримка та поширення


З нами з: 03.07.14
Востаннє: 11.12.18
Повідомлень: 2991

2018-11-01 22:15  
t850 написано:
навіщо всередині епізоду

Більше реклами = більше грошей = краще озвучення

DniproFilm 
Свій


З нами з: 10.10.18
Востаннє: 11.12.18
Повідомлень: 147

2018-11-02 00:42  
УВАГА! РЕЛІЗ ОНОВЛЕНО! (01.11.2018). Додано 3 серію.
munipet 
Поважний учасник


З нами з: 14.04.11
Востаннє: 10.12.18
Повідомлень: 238

2018-11-03 03:30  
Хороший серіал без всякої гомосятини !!!
SpeeDDingo 
Новенький


З нами з: 09.05.10
Востаннє: 11.12.18
Повідомлень: 5

2018-11-19 00:07  
Сподобалося озвучення, чекаю на 4 серію.
DniproFilm 
Свій


З нами з: 10.10.18
Востаннє: 11.12.18
Повідомлень: 147

2018-11-20 10:01  
РЕЛІЗ ОНОВЛЕНО! (19.11.2018). Додано 4 серію.

DniproFilm 
Свій


З нами з: 10.10.18
Востаннє: 11.12.18
Повідомлень: 147

2018-11-29 19:42  
РЕЛІЗ ОНОВЛЕНО! (29.11.2018). Додано 5-6 серії.

munipet 
Поважний учасник


З нами з: 14.04.11
Востаннє: 10.12.18
Повідомлень: 238

2018-11-30 10:29  
Зявилася гомосятина всеж таки.якіж вони жиди хворі на голову ,без пропагади не можуть нічого зняти ю
DniproFilm 
Свій


З нами з: 10.10.18
Востаннє: 11.12.18
Повідомлень: 147

2018-12-05 21:06  
РЕЛІЗ ОНОВЛЕНО! (05.12.2018). Додано 7 серію.

суперпатріот 
Частий відвідувач


З нами з: 18.02.15
Востаннє: 08.12.18
Повідомлень: 44

2018-12-08 00:05  
другосортний серіал. Схожий на якийсь дешевий сітком, тільки без фонового сміху. І з трупами.
переклад іноді грішить дурнуватими й недоречними фразами типу "перти проти КамАЗа". Але цільовій авдиторії, мабуть, підійде й таке. Ну а що? Локалізація неабияка.

Ваш часовий пояс: GMT + 2 Години

Нова тема   Відповісти