Новобранець (Сезон 1, серії 1-7) / The Rookie (Season 1, episodes 1-7) (2018) 720p Ukr/Eng

Нові коментарі

Нова тема   Відповісти
Автор Повідомлення
DniproFilm 
Свій


З нами з: 10.10.18
Востаннє: 11.12.18
Повідомлень: 147

2018-10-26 00:52  
Новобранець (Сезон 1, серії 1-7) / The Rookie (Season 1, episodes 1-7) (2018) 720p Ukr/Eng

Новобранець (Сезон 1, серії 1-7) / The Rookie (Season 1, episodes 1-7) (2018) 720p Ukr/Eng


Жанр: детектив, драма, комедія
Країна: США



Кінокомпанія / телеканал: eOne Television, Perfectmon Pictures, ABC Studios / ABC
Режисер: Алексі Гоулі
Актори/ролі озвучують: Натан Філліон, Ерік Вінтер, Річард Ті Джоунс, Аліса Діаз, Меліса Оніл, Мерседес Мейсон та інші

Сюжет:
Починати з чистого аркуша завжди нелегко, особливо для мешканця маленького містечка Джона Нолана. Після інциденту, який перевернув його життя, він вирішив здійснити давню мрію і приєднатися до поліції Лос-Анджелеса. Старого новачка зустрічають із зрозумілим скептицизмом, проте життєвий досвід, наполегливість та почуття гумора дають Джону перевагу.


Тривалість: 1 серія: ~ 44 хв. (цілком серій: 20)
Перелік серій

1. Pilot
2. Crash Course
3. The Good, the Bad and the Ugly
4. The Switch
5. The Roundup
6. The Hawke
7. The Ride Along
8. Time of Death
9. Episode 1.9
10. Episode 1.10
11. Episode 1.11
12. Episode 1.12
13. Episode 1.13
14. Episode 1.14
15. Episode 1.15
16. Episode 1.16
17. Episode 1.17
18. Episode 1.18
19. Episode 1.19
20. Episode 1.20
Якість:
Відео:
кодек:
розмір кадру: 1280x720
бітрейт: ~4000 кб/с

Аудіо # 1:
мова: українська
переклад: багатоголосий закадровий
кодек: 5.1
бітрейт: 384 кб/с

Аудіо # 2:
мова: англійська
переклад: оригінал
кодек: 5.1
бітрейт: 640 кб/с

Джерело озвучення:
DniproFilm
Info

Video
ID : 1
Format : AVC
Format/Info : Advanced Video Codec
Format profile : [email protected]
Format settings : CABAC / 4 Ref Frames
Format settings, CABAC : Yes
Format settings, ReFrames : 4 frames
Codec ID : V_MPEG4/ISO/AVC
Duration : 43 min 32 s
Bit rate : 3 950 kb/s
Width : 1 280 pixels
Height : 720 pixels
Display aspect ratio : 16:9
Frame rate mode : Constant
Frame rate : 23.976 (24000/1001) FPS
Standard : NTSC
Color space : YUV
Chroma subsampling : 4:2:0
Bit depth : 8 bits
Scan type : Progressive
Bits/(Pixel*Frame) : 0.179
Stream size : 1.20 GiB (79%)
Language : English
Default : Yes
Forced : No
Color range : Limited
Color primaries : BT.709
Transfer characteristics : BT.709
Matrix coefficients : BT.709

Audio #1
ID : 2
Format : AC-3
Format/Info : Audio Coding 3
Commercial name : Dolby Digital
Codec ID : A_AC3
Duration : 43 min 32 s
Bit rate mode : Constant
Bit rate : 384 kb/s
Channel(s) : 6 channels
Channel positions : Front: L C R, Side: L R, LFE
Sampling rate : 48.0 kHz
Frame rate : 31.250 FPS (1536 SPF)
Bit depth : 16 bits
Compression mode : Lossy
Stream size : 120 MiB (8%)
Title : DniproFilm
Language : Ukrainian
Service kind : Complete Main
Default : Yes
Forced : No

Audio #2
ID : 3
Format : AC-3
Format/Info : Audio Coding 3
Codec ID : A_AC3
Duration : 43 min 1 s
Bit rate : 640 kb/s
Channel(s) : 6 channels
Sampling rate : 48.0 kHz
Frame rate : 31.250 FPS (1536 SPF)
Compression mode : Lossy
Stream size : 197 MiB (13%)
Language : English
Default : No
Forced : No
Скріншоти


Увага, присутня відео та аудіореклама.

Додано 7 серію.


Джерело: DniproFilm
Особиста оцінка: 9 - давно не бачив настільки якісне кіно



Авторський реліз (завантажувати можна без реєстрації)
 Трекер:    Зареєстрований   

Завантажити / скачати серіал українською



відео для новачків



 Зареєстрований:   2018-12-05 21:04
 Розмір:   10.47 GB 
 Оцінка серіалу:   9.6/10 (Голосів: 13)
   
Estranded 
VIP


З нами з: 09.02.14
Востаннє: 10.12.18
Повідомлень: 1234

2018-10-29 23:24  
Зараз зацінюHappy

Додано через 1 годину 26 хвилин 6 секунд:

Якість озвучення та перекладу на рівні, продовжу переглядHappy

DniproFilm 
Свій


З нами з: 10.10.18
Востаннє: 11.12.18
Повідомлень: 147

2018-11-02 00:41  
УВАГА! РЕЛІЗ ОНОВЛЕНО! (01.11.2018). Додано 3 серію.
Estranded 
VIP


З нами з: 09.02.14
Востаннє: 10.12.18
Повідомлень: 1234

2018-11-11 13:21  
Коли нові серії?
DniproFilm 
Свій


З нами з: 10.10.18
Востаннє: 11.12.18
Повідомлень: 147

2018-11-20 10:01  
УВАГА! РЕЛІЗ ОНОВЛЕНО! (19.11.2018). Додано 4 серію.

DniproFilm 
Свій


З нами з: 10.10.18
Востаннє: 11.12.18
Повідомлень: 147

2018-11-29 19:42  
УВАГА! РЕЛІЗ ОНОВЛЕНО! (29.11.2018). Додано 5-6 серії.

GlossaVK 
Частий відвідувач


З нами з: 26.06.13
Востаннє: 10.12.18
Повідомлень: 48

2018-12-02 19:45  
Перші чотири серії цікаві, а з п'ятої, почалась криза жанру...
DniproFilm 
Свій


З нами з: 10.10.18
Востаннє: 11.12.18
Повідомлень: 147

2018-12-05 21:05  
УВАГА! РЕЛІЗ ОНОВЛЕНО! (05.12.2018). Додано 7 серію.

qarty1 
Свій


З нами з: 01.11.09
Востаннє: 10.12.18
Повідомлень: 116

2018-12-06 07:54  
я розумію що Український переклад але нащо воно тут з рекламою
Ваш часовий пояс: GMT + 2 Години

Нова тема   Відповісти