Робота Клітин / Hataraku Saibou (13 з 13) (2018) 720p Jap | Sub Ukr

Нові коментарі

Нова тема   Відповісти
Автор Повідомлення
jevghen 
Новенький


З нами з: 06.04.17
Востаннє: 04.04.20
Повідомлень: 21

2018-10-25 20:57  
Робота Клітин / Hataraku Saibou (13 з 13) (2018) 720p Jap | Sub Ukr

Робота Клітин / Hataraku Saibou (13 з 13) (2018) 720p Jap | Sub Ukr


Жанр: Комедія, Шьонен
Країна: Японія
Студія: David Production
Режисер: Сузукі Кенічі
Переклад: K0wbassa


Сюжет:
Історія розповідає про життя клітин у людському організмі. Клітини зображенні як люди певних професій. Деякі з них працюють у сфері доставки, дехто захищає організм від шкідливих бактерій та вірусів, а хтось просто прибирає зайве або відновлює пошкодженні частини тіла.

Тривалість: 1 серія: ~ 23:40 (цілком серій: 13)
Якість:
Відео:
кодек:
розмір кадру: 1280 х 720
бітрейт: ~ 3000 кб/с

Аудіо:
мова: японська
переклад: оригінал
кодек: 2.0
бітрейт: 128 кб/с

Субтитри:
мова: українська
тип: програмні (м'які)
формат: *.
Список серій

1. Пневмокок
2. Садно
3. Вірус Грипу
4. Розлад Шлунку
5. Алергія на Кедровий Пилок
6. Еритробласти та Мієлоцити
7. Ракові Клітини
8. Циркуляція Крові
9. Тимоцити
10. Золотистий Стафілокок
11. Тепловий Удар
12. Геморагічний шок (частина 1)
13. Геморагічний шок (частина 2)
Скріншоти





Info (Перша серія)

Общее
Уникальный идентификатор : 176488075796785722867059718611671510251 (0x84C65DF3BD82645EFDF0BFFD6314ECEB)
Полное имя : E:\Torrents\Hataraku Saibou (2018) 720p\Hataraku Saibou - 01 (2).
Формат :
Версия формата : Version 4 / Version 2
Размер файла : 546 Мбайт
Продолжительность : 23 м. 40 с.
Общий поток : 3223 Кбит/сек
Дата кодирования : UTC 2018-10-25 17:16:40
Программа кодирования : v25.0.0 ('Prog Noir') 64-bit
Библиотека кодирования : libebml v1.3.6 + v1.4.9
Attachments : OpenSans-Semibold.ttf

Видео
Идентификатор : 1
Формат : AVC
Формат/Информация : Advanced Video Codec
Профиль формата : [email protected]
Настройки формата : CABAC / 6 Ref Frames
Параметр CABAC формата : Да
Параметр RefFrames формата : 6 кадров
Идентификатор кодека : V_MPEG4/ISO/AVC
Продолжительность : 23 м. 40 с.
Битрейт : 3091 Кбит/сек
Ширина : 1280 пикселей
Высота : 720 пикселей
Соотношение сторон : 16:9
Режим частоты кадров : Постоянный
Частота кадров : 23,976 (24000/1001) кадра/сек
Цветовое пространство : YUV
Субдискретизация насыщенности : 4:2:0
Битовая глубина : 8 бит
Тип развёртки : Прогрессивная
Бит/(Пиксели*Кадры) : 0.140
Размер потока : 523 Мбайт (96%)
Библиотека кодирования : core 142
Настройки программы : cabac=1 / ref=6 / deblock=1:1:1 / analyse=0x3:0x113 / me=umh / subme=8 / psy=1 / psy_rd=0.40:0.00 / mixed_ref=1 / me_range=16 / chroma_me=1 / trellis=1 / 8x8dct=1 / cqm=0 / deadzone=21,11 / fast_pskip=1 / chroma_qp_offset=-2 / threads=10 / lookahead_threads=1 / sliced_threads=0 / nr=0 / decimate=1 / interlaced=0 / bluray_compat=0 / constrained_intra=0 / bframes=3 / b_pyramid=2 / b_adapt=2 / b_bias=0 / direct=3 / weightb=1 / open_gop=0 / weightp=2 / keyint=48 / keyint_min=24 / scenecut=40 / intra_refresh=0 / rc_lookahead=48 / rc=crf / mbtree=1 / crf=15.0 / qcomp=0.60 / qpmin=0 / qpmax=69 / qpstep=4 / vbv_maxrate=4000 / vbv_bufsize=6000 / crf_max=0.0 / nal_hrd=none / filler=0 / ip_ratio=1.40 / aq=1:0.60
Язык : Japanese
Default : Да
Forced : Нет

Аудио
Идентификатор : 2
Формат :
Формат/Информация : Advanced Audio Codec
Профиль формата : LC
Идентификатор кодека : A_AAC-2
Продолжительность : 23 м. 40 с.
Битрейт : 128 Кбит/сек
Каналы : 2 канала
Расположение каналов : Front: L R
Частота : 44,1 КГц
Частота кадров : 43,066 кадра/сек (1024 SPF)
Метод сжатия : С потерями
Размер потока : 21,7 Мбайт (4%)
Язык : Japanese
Default : Да
Forced : Нет

Текст
Идентификатор : 3
Формат :
Идентификатор кодека : S_TEXT/
Идентификатор кодека/Информация : Advanced Sub Station Alpha
Продолжительность : 22 м. 8 с.
Битрейт : 235 бит/сек
ElementCount : 491
Метод сжатия : Без потерь
Размер потока : 38,2 Кбайт (0%)
Заголовок : Укр. від K0wbassa
Язык : Ukrainian
Default : Да
Forced : Да
Джерело: ,
Особиста оцінка: 8 - мені сподобалося


Золотий реліз (завантажене не впливає на рейтинг)
 Трекер:    Зареєстрований   

Завантажити / скачати аніме українською



відео для новачків



 Зареєстрований:   2018-10-25 20:57
 Розмір:   6.64 GB 
 Оцінка аніме:   10/10 (Голосів: 4)
   
itirium 
Новенький


З нами з: 28.09.11
Востаннє: 07.04.20
Повідомлень: 2

2018-10-25 21:20  
СУПЕР!!!! ЧЕКАЄМО ПРОДОВЖЕННЯ!
bebebebebebebe 
Свій


З нами з: 22.01.18
Востаннє: 29.03.20
Повідомлень: 139

2018-11-02 23:16  
Воно офігенне! Але як мінімум перші дві серії є і в озвучці українській. Сподіваюся, його доозвучать до кінця!
EvGaS 
Відео Гуртом - субтитрування
Відео Гуртом - субтитрування


З нами з: 27.02.12
Востаннє: 31.07.19
Повідомлень: 5669

2018-12-21 11:28  
Ну, озвучення може й на кілька років затягтися. Затягну собі на підтримку текстове.
Ваш часовий пояс: GMT + 2 Години

Нова тема   Відповісти