Викрадачі шкарпеток (The Oddsockeaters, Lichožrouti) / Lichozrouti (2016)

Нові коментарі

Нова тема   Відповісти
Автор Повідомлення
Anonymous 







2018-10-25 19:54  
Викрадачі шкарпеток / The Oddsockeaters / Lichožrouti / Lichozrouti (2016)



Жанр: анімація, пригодницький, сімейний, фентезі
Країна: Чехія, Словаччина, Хорватія



Кінокомпанія: Total HelpArt T.H.A.
Режисер: Галина Міклінова
Ролі озвучують: Кріштоф Гадек, Ян Максіан, Девід Новотни, Онджей Троян, Марек Тацлік, Тетяна Вільгельмова, Йозеф Шомр, Алес Найбрт

Сюжет:
Куди ж постійно пропадають шкарпетки? Виявляється, існують маленькі істоти – шкарпеткоїди. Вони живуть у кожному будинку та провертають найнезвичайніші справи, поки всі сплять або нікого немає вдома. Вони вміють ховатися, як хамелеони, та красти по одній шкарпетці з пари. Ще вони допомагають своїм побратимам, які опинилися у біді, та мають чуйність та доброту.


Тривалість: 01:26:22
Якість: [Hurtom]

Відео:
кодек:
розмір кадру: 720х400
бітрейт: 2202 кб/с

Аудіо:
мова: українська
переклад: багатоголосий закадровий | студія ААА-sound
кодек: 2.0 [стерео]
бітрейт: 192 кб/с
Інформація про озвучення:

Режисер озвучення та звукорежисер перезапису: Олександр Єфімов
Ролі озвучили: Дмитро Завадський, Катерина Буцька, Андрій Федінчик, Андрій Альохін, Ярослав Чорненький та інші.

Фільм озвучено студією ААА-sound у 2018 році на замовлення компанії "Каскад Україна".
Info
Код:
General
Complete name               : Lichozrouti (2016) [Ukr] [Hurtom].avi
Format                      : AVI
Format/Info                 : Audio Video Interleave
File size                   : 1.45 GiB
Duration                    : 1 h 26 min
Overall bit rate            : 2 403 kb/s
Movie name                  : Викрадачі шкарпеток / The Oddsockeaters / Lichozrouti (2016) [Ukr] [Hurtom]
Genre                       : анімація, пригодницький, сімейний, фентезі
Recorded date               : 25.10.2018
Writing application         : VirtualDubModUkr 1.5.10.2 (build 2542/release)
Writing library             : VirtualDubMod build 2542/release
Comment                     : https://toloka.to/t96001

Video
ID                          : 0
Format                      : MPEG-4 Visual
Format profile              : Advanced [email protected]
Format settings             : BVOP1
Format settings, BVOP       : 1
Format settings, QPel       : No
Format settings, GMC        : No warppoints
Format settings, Matrix     : Default (MPEG)
Codec ID                    :
Codec ID/Hint               :
Duration                    : 1 h 26 min
Bit rate                    : 2 202 kb/s
Width                       : 720 pixels
Height                      : 400 pixels
Display aspect ratio        : 16:9
Frame rate                  : 24.000 FPS
Color space                 : YUV
Chroma subsampling          : 4:2:0
Bit depth                   : 8 bits
Scan type                   : Progressive
Compression mode            : Lossy
Bits/(Pixel*Frame)          : 0.319
Stream size                 : 1.33 GiB (92%)
Writing library             : 67

Audio
ID                          : 1
Format                      : AC-3
Format/Info                 : Audio Coding 3
Commercial name             : Dolby Digital
Codec ID                    : 2000
Duration                    : 1 h 26 min
Bit rate mode               : Constant
Bit rate                    : 192 kb/s
Channel(s)                  : 2 channels
Channel layout              : L R
Sampling rate               : 48.0 kHz
Frame rate                  : 31.250 FPS (1536 SPF)
Bit depth                   : 16 bits
Compression mode            : Lossy
Stream size                 : 119 MiB (8%)
Alignment                   : Split accross interleaves
Interleave, duration        : 42  ms (1.00 video frame)
Interleave, preload duratio : 500  ms
Title                       : UKR MVO [AAA-Sound]
Service kind                : Complete Main


Джерело: &
Особиста оцінка: 7 - мені сподобався - є мораль та оригінальний сюжет, рекомендую до сімейного перегляду.


 Трекер:    Зареєстрований   

Завантажити / скачати мультфільм українською



відео для новачків



 Зареєстрований:   2018-10-25 22:41
 Розмір:   1.45 GB 
 Оцінка мультфільму:   9.3/10 (Голосів: 20)
 ЗАЛИШАЙТЕСЬ ЯКОМОГА ДОВШЕ НА РОЗДАЧІ! ЗАВАНТАЖИВ САМ - ДАЙ ЗАВАНТАЖИТИ ІНШИМ.
   
jaral 
Забанено
Забанено


З нами з: 18.10.07
Востаннє: 21.01.20
Повідомлень: 977

2018-10-26 04:02  
Anonymous написано:
Lichozrouti
? Для чого писати не існуючий варіант? Краще вже транслітерацію: Likhozhrouti
EvGaS 
Відео Гуртом - субтитрування
Відео Гуртом - субтитрування


З нами з: 27.02.12
Востаннє: 31.07.19
Повідомлень: 5668

2018-10-26 04:13  
jaral, мо воно в якійсь БД під такою назвою, чи міжнародний варіант.
https://www.imdb.com/title/tt5176632/

Anonymous 







2018-10-28 13:35  
Додав інформацію про озвучення.
Ваш часовий пояс: GMT + 2 Години

Нова тема   Відповісти