Друзі по сексу / Секс по дружбі / Friends with Benefits (2011) 1080p H.265 2xUkr/Eng | Sub Eng

Нові коментарі

Нова тема   Відповісти
Автор Повідомлення
Anonymous 







2018-10-25 10:08  
Друзі по сексу / Секс по дружбі / Friends with Benefits (2011) 1080p H.265 2xUkr/Eng | Sub Eng

Друзі по сексу / Секс по дружбі / Friends with Benefits (2011) 1080p H.265 2xUkr/Eng | Sub Eng


Жанр: комедія, романтичний
Країна: США



Кінокомпанія: Screen Gems, Castle Rock Entertainment, Zucker Productions
Режисер: Вілл Ґлак / Will Gluck
Актори: Джастін Тімберлейк / Justin Timberlake, Міла Куніс / Mila Kunis, Патріція Кларксон / Patricia Clarkson, Дженна Елфмен / Jenna Elfman, Брайан Ґрінберґ / Bryan Greenberg, Річард Дженкінс / Richard Jenkins, Вуді Гарельсон / Woody Harrelson, Нолан Ґоулд / Nolan Gould та інші

Сюжет:
Дружбу сексом не зіпсувати! Він дуже привабливий, вона – просто втілення сексуальності, обидва молоді і повні енергії. Натомість життя занадто динамічне, і зовсім ніколи витрачати його на флірт, примхи "коханої" та ревнощі. Більш того, їм зовсім не хочеться стримувати свої бажання, особливо якщо у обох тільки одне спільне в голові. То чому ж двом прекрасним людям, майже напівбогам, не витягнути з цієї дружби максимум задоволення і додати трохи пікантності до стосунків!


Тривалість: 01:49:27
Якість: (Власний Rip)
Відео:
кодек: H.265 (HEVC)
розмір кадру: 1920 х 802
бітрейт: 4 503 кб/с
бітова глибина: 10 біт
Увага! Перед завантаженням переконайтесь, що ваш пристрій відтворення (та/або ПЗ) підтримує H.265 (HEVC)

Аудіо # 1:
мова: українська
переклад: професійний дубльований
кодек: 5.1
бітрейт: 640 кб/с

Аудіо # 2:
мова: українська
переклад: багатоголосий закадровий
кодек: 2.0
бітрейт: 192 кб/с

Аудіо # 3:
мова: англійська
переклад: оригінал
кодек: 5.1
бітрейт: 640 кб/с

Субтитри # 1:
мова: українська (Forced)
тип: програмні (м'які)
формат: *.srt

Субтитри # 2-4:
мова: англійська (Full, SDH, Commentary)
тип: програмні (м'які)
формат: *.srt


Info
Код:
General
Unique ID                                : 91692570315707612807931035594045735523 (0x44FB58C0573495D8DB022DCD1E134263)
Complete name                            : F:\Video\Friends With Benefits (2011) 1080p H.265 [2xUKR_ENG].
Format                                   :
Format version                           : Version 4 / Version 2
File size                                : 4.57 GiB
Duration                                 : 1 h 49 min
Overall bit rate                         : 5 978 kb/s
Movie name                               : Friends with Benefits (2011) - Encoded by -Star-Lord-
Encoded date                             : UTC 2018-10-25 07:45:13
Writing application                      : v20.0.0 ('I Am The Sun') 32-bit
Writing library                          : libebml v1.3.5 + v1.4.8
Cover                                    : Yes
Attachments                              : Cover.jpg

Video
ID                                       : 1
Format                                   : HEVC
Format/Info                              : High Efficiency Video Coding
Format profile                           : Main [email protected]@High
Codec ID                                 : V_MPEGH/ISO/HEVC
Duration                                 : 1 h 49 min
Bit rate                                 : 4 503 kb/s
Width                                    : 1 920 pixels
Height                                   : 802 pixels
Display aspect ratio                     : 2.40:1
Frame rate mode                          : Constant
Frame rate                               : 23.976 (24000/1001) FPS
Color space                              : YUV
Chroma subsampling                       : 4:2:0
Bit depth                                : 10 bits
Bits/(Pixel*Frame)                       : 0.122
Stream size                              : 3.44 GiB (75%)
Title                                    : Encoded by -Star-Lord-
Writing library                          : x265 2.8+74-fd517ae68f93:[Windows][GCC 7.3.0][64 bit] 10bit
Encoding settings                        : cpuid=1111039 / frame-threads=5 / numa-pools=4 / wpp / no-pmode / no-pme / no-psnr / no-ssim / log-level=3 / input-csp=1 / input-res=1920x802 / interlace=0 / total-frames=0 / level-idc=51 / high-tier=1 / uhd-bd=0 / ref=5 / allow-non-conformance / no-repeat-headers / annexb / no-aud / no-hrd / info / hash=0 / no-temporal-layers / open-gop / min-keyint=23 / keyint=250 / gop-lookahead=0 / bframes=8 / b-adapt=2 / b-pyramid / bframe-bias=0 / rc-lookahead=60 / lookahead-slices=5 / scenecut=40 / radl=0 / no-intra-refresh / ctu=64 / min-cu-size=8 / no-rect / no-amp / max-tu-size=32 / tu-inter-depth=2 / tu-intra-depth=2 / limit-tu=0 / rdoq-level=0 / dynamic-rd=0.00 / no-ssim-rd / signhide / no-tskip / nr-intra=0 / nr-inter=0 / no-constrained-intra / no-strong-intra-smoothing / max-merge=2 / limit-refs=3 / no-limit-modes / me=3 / subme=7 / merange=57 / temporal-mvp / weightp / weightb / no-analyze-src-pics / deblock=-3:-3 / no-sao / no-sao-non-deblock / rd=3 / no-early-skip / rskip / no-fast-intra / no-tskip-fast / no-cu-lossless / no-b-intra / no-splitrd-skip / rdpenalty=0 / psy-rd=2.00 / psy-rdoq=0.00 / no-rd-refine / no-lossless / cbqpoffs=0 / crqpoffs=0 / rc=crf / crf=19.0 / qcomp=0.65 / qpstep=1 / stats-write=0 / stats-read=0 / vbv-maxrate=50000 / vbv-bufsize=50000 / vbv-init=0.9 / crf-max=0.0 / crf-min=0.0 / ipratio=1.40 / pbratio=1.30 / aq-mode=1 / aq-strength=1.00 / cutree / zone-count=0 / no-strict-cbr / qg-size=32 / no-rc-grain / qpmax=69 / qpmin=0 / no-const-vbv / sar=1 / overscan=0 / videoformat=5 / range=0 / colorprim=2 / transfer=2 / colormatrix=2 / chromaloc=0 / display-window=0 / max-cll=0,0 / min-luma=0 / max-luma=1023 / log2-max-poc-lsb=8 / vui-timing-info / vui-hrd-info / slices=1 / no-opt-qp-pps / no-opt-ref-list-length-pps / no-multi-pass-opt-rps / scenecut-bias=0.05 / no-opt-cu-delta-qp / no-aq-motion / no-hdr / no-hdr-opt / no-dhdr10-opt / no-idr-recovery-sei / analysis-reuse-level=5 / scale-factor=0 / refine-intra=0 / refine-inter=0 / refine-mv=0 / no-limit-sao / ctu-info=0 / no-lowpass-dct / refine-mv-type=0 / copy-pic=1 / max-ausize-factor=1.0 / no-dynamic-refine / no-single-sei
Default                                  : Yes
Forced                                   : No

Audio #1
ID                                       : 2
Format                                   : AC-3
Format/Info                              : Audio Coding 3
Codec ID                                 : A_AC3
Duration                                 : 1 h 49 min
Bit rate mode                            : Constant
Bit rate                                 : 640 kb/s
Channel(s)                               : 6 channels
Channel positions                        : Front: L C R, Side: L R, LFE
Sampling rate                            : 48.0 kHz
Frame rate                               : 31.250 FPS (1536 SPF)
Bit depth                                : 16 bits
Compression mode                         : Lossy
Stream size                              : 501 MiB (11%)
Title                                    : Blu-Ray
Language                                 : Ukrainian
Service kind                             : Complete Main
Default                                  : Yes
Forced                                   : No

Audio #2
ID                                       : 3
Format                                   : AC-3
Format/Info                              : Audio Coding 3
Codec ID                                 : A_AC3
Duration                                 : 1 h 49 min
Bit rate mode                            : Constant
Bit rate                                 : 192 kb/s
Channel(s)                               : 2 channels
Channel positions                        : Front: L R
Sampling rate                            : 48.0 kHz
Frame rate                               : 31.250 FPS (1536 SPF)
Bit depth                                : 16 bits
Compression mode                         : Lossy
Stream size                              : 150 MiB (3%)
Title                                    : Paramount Comedy
Language                                 : Ukrainian
Service kind                             : Complete Main
Default                                  : No
Forced                                   : No

Audio #3
ID                                       : 4
Format                                   : AC-3
Format/Info                              : Audio Coding 3
Codec ID                                 : A_AC3
Duration                                 : 1 h 49 min
Bit rate mode                            : Constant
Bit rate                                 : 640 kb/s
Channel(s)                               : 6 channels
Channel positions                        : Front: L C R, Side: L R, LFE
Sampling rate                            : 48.0 kHz
Frame rate                               : 31.250 FPS (1536 SPF)
Bit depth                                : 16 bits
Compression mode                         : Lossy
Stream size                              : 501 MiB (11%)
Title                                    : Original
Language                                 : English
Service kind                             : Complete Main
Default                                  : No
Forced                                   : No

Text #1
ID                                       : 5
Format                                   : UTF-8
Codec ID                                 : S_TEXT/UTF8
Codec ID/Info                            : UTF-8 Plain Text
Duration                                 : 1 h 20 min
Bit rate                                 : 0 b/s
Count of elements                        : 5
Stream size                              : 194 Bytes (0%)
Title                                    : UKR (forced)
Language                                 : Ukrainian
Default                                  : Yes
Forced                                   : Yes

Text #2
ID                                       : 6
Format                                   : UTF-8
Codec ID                                 : S_TEXT/UTF8
Codec ID/Info                            : UTF-8 Plain Text
Duration                                 : 1 h 49 min
Bit rate                                 : 92 b/s
Count of elements                        : 1930
Stream size                              : 73.8 KiB (0%)
Title                                    : ENG
Language                                 : English
Default                                  : No
Forced                                   : No

Text #3
ID                                       : 7
Format                                   : UTF-8
Codec ID                                 : S_TEXT/UTF8
Codec ID/Info                            : UTF-8 Plain Text
Duration                                 : 1 h 49 min
Bit rate                                 : 92 b/s
Count of elements                        : 2168
Stream size                              : 73.9 KiB (0%)
Title                                    : ENG (SDH)
Language                                 : English
Default                                  : No
Forced                                   : No

Text #4
ID                                       : 8
Format                                   : UTF-8
Codec ID                                 : S_TEXT/UTF8
Codec ID/Info                            : UTF-8 Plain Text
Duration                                 : 1 h 49 min
Bit rate                                 : 137 b/s
Count of elements                        : 2362
Stream size                              : 110 KiB (0%)
Title                                    : ENG (Commentary)
Language                                 : English
Default                                  : No
Forced                                   : No

Menu
00:00:00.000                             : en:Chapter.01
00:05:23.698                             : en:Chapter.02
00:12:34.211                             : en:Chapter.03
00:17:42.686                             : en:Chapter.04
00:24:20.917                             : en:Chapter.05
00:32:57.225                             : en:Chapter.06
00:41:28.819                             : en:Chapter.07
00:45:45.868                             : en:Chapter.08
00:54:45.407                             : en:Chapter.09
00:58:58.868                             : en:Chapter.10
01:03:57.041                             : en:Chapter.11
01:13:44.753                             : en:Chapter.12
01:20:59.729                             : en:Chapter.13
01:27:09.599                             : en:Chapter.14
01:32:09.649                             : en:Chapter.15
01:38:30.321                             : en:Chapter.16
Скріншоти




Джерело:
Особиста оцінка: 10 - без зайвих вагань рекомендую всім!


 Трекер:    Зареєстрований   

Завантажити / скачати фільм українською



відео для новачків



 Зареєстрований:   2018-10-25 10:08
 Розмір:   4.57 GB 
 Оцінка фільму:   8.5/10 (Голосів: 11)
   
omm 
Відео Гуртом - фільмокрай
Відео Гуртом - фільмокрай


З нами з: 12.06.12
Востаннє: 28.02.21
Повідомлень: 2443

2020-05-13 21:32  
Доволі непогана комедійка

7 з 10

Ваш часовий пояс: GMT + 2 Години

Нова тема   Відповісти