Люди Ікс: Дні минулого майбутнього [Розширена версія] / X-Men: Days of Future Past [The Rogue Cut] (2014) AVC Ukr/Eng | Sub Ukr/Eng

Нові коментарі

Нова тема   Відповісти
Автор Повідомлення
staf777 
Відео Гуртом - підтримка та поширення
Відео Гуртом - підтримка та поширення


З нами з: 16.11.16
Востаннє: 21.11.19
Повідомлень: 3034

2018-10-25 08:33  
Люди Ікс: Дні минулого майбутнього [Розширена версія] / X-Men: Days of Future Past [The Rogue Cut] (2014) AVC Ukr/Eng | Sub Ukr/Eng

Люди Ікс: Дні минулого майбутнього [Розширена версія] / X-Men: Days of Future Past [The Rogue Cut] (2014) AVC Ukr/Eng | Sub Ukr/Eng


Жанр: пригодницький, трилер, бойовик, фантастика
Країна: США, Велика Британія



Кінокомпанія: Twentieth Century Fox Film Corporation, Marvel Entertainment, TSG Entertainment
Режисер: Браян Сінгер (Bryan Singer)
Актори: Г'ю Джекмен (Hugh Jackman), Джеймс Макевой (James McAvoy), Майкл Фассбендер (Michael Fassbender), Дженніфер Лоуренс (Jennifer Lawrence), Геллі Беррі (Halle Berry), Єн Маккеллен (Ian McKellen), Патрік Стюарт (Patrick Stewart) та інші.

Сюжет:
У недалекому майбутньому роботи-мисливці Вартові, винищують усіх мутантів. Єдина надія на виживання - запобігти низці фатальних подій, що призвели до появи Вартових. За допомогою своїх здібностей, Кітті Прайд переміщує свідомість Росомахи у його молоде тіло в 1973 рік. В минулому виявляється не все так просто: молодий Професор Ікс остаточно розчарований у своїх ідеях, Магнето утримується у в'язниці глибоко під землею, а людство не знає як реагувати на появу мутантів...


Тривалість: 02:28:45 (порівняння з театральною версією)
Якість: AVC
Відео:
кодек:
розмір кадру: 1032x430
бітрейт: 1969 кб/с

Аудіо # 1:
мова: українська
переклад: професійний дубльований з вставками оригіналу
кодек: 5.1
бітрейт: 448 кб/с

Аудіо # 2:
мова: англійська
переклад: оригінал
кодек: 5.1
бітрейт: 448 кб/с

Джерело озвучення:


Субтитри # 1-2:
мова: українська (форсовані на місця без перекладу) + (повні)
тип: програмні (м'які)
формат: *.srt

Субтитри # 3-4:
мова: англійська (forced, full)
тип: програмні (м'які)
формат: *.srt
Info
General
Unique ID : 20857915342271793920303499677551337486 (0xFB1169FA597938E4718EDD191E4A00E)
Complete name : S:\X-Men Days of Future Past [The Rogue Cut] (2014) AVC [UKR_ENG] [Hurtom].
Format :
Format version : Version 4 / Version 2
File size : 2.98 GiB
Duration : 2 h 28 min
Overall bit rate : 2 868 kb/s
Movie name : X-Men: Days of Future Past [The Rogue Cut] (2014) AVC [UKR_ENG] [Hurtom]
Encoded date : UTC 2018-10-24 17:12:54
Writing application : v24.0.0 ('Beyond The Pale') 64-bit
Writing library : libebml v1.3.6 + v1.4.9
Cover : Yes
Attachments : cover.jpg

Video
ID : 1
Format : AVC
Format/Info : Advanced Video Codec
Format profile : [email protected]
Format settings : CABAC / 10 Ref Frames
Format settings, CABAC : Yes
Format settings, ReFrames : 10 frames
Codec ID : V_MPEG4/ISO/AVC
Duration : 2 h 28 min
Bit rate : 1 969 kb/s
Width : 1 032 pixels
Height : 430 pixels
Display aspect ratio : 2.40:1
Frame rate mode : Constant
Frame rate : 23.976 (24000/1001) FPS
Color space : YUV
Chroma subsampling : 4:2:0
Bit depth : 8 bits
Scan type : Progressive
Bits/(Pixel*Frame) : 0.185
Stream size : 2.05 GiB (69%)
Title : potroks
Writing library : core 146 r2538 121396c
Encoding settings : cabac=1 / ref=10 / deblock=1:-2:-2 / analyse=0x3:0x113 / me=umh / subme=11 / psy=1 / psy_rd=1.01:0.06 / mixed_ref=1 / me_range=48 / chroma_me=1 / trellis=2 / 8x8dct=1 / cqm=0 / deadzone=21,11 / fast_pskip=0 / chroma_qp_offset=-3 / threads=9 / lookahead_threads=2 / sliced_threads=0 / nr=0 / decimate=1 / interlaced=0 / bluray_compat=0 / constrained_intra=0 / bframes=11 / b_pyramid=2 / b_adapt=2 / b_bias=0 / direct=3 / weightb=1 / open_gop=0 / weightp=2 / keyint=250 / keyint_min=23 / scenecut=40 / intra_refresh=0 / rc_lookahead=60 / rc=2pass / mbtree=0 / bitrate=1969 / ratetol=1.0 / qcomp=0.70 / qpmin=0 / qpmax=69 / qpstep=4 / cplxblur=20.0 / qblur=0.5 / vbv_maxrate=14000 / vbv_bufsize=14000 / nal_hrd=none / filler=0 / ip_ratio=1.35 / pb_ratio=1.25 / aq=1:0.80
Language : English
Default : Yes
Forced : No

Audio #1
ID : 2
Format : AC-3
Format/Info : Audio Coding 3
Codec ID : A_AC3
Duration : 2 h 28 min
Bit rate mode : Constant
Bit rate : 448 kb/s
Channel(s) : 6 channels
Channel positions : Front: L C R, Side: L R, LFE
Sampling rate : 48.0 kHz
Frame rate : 31.250 FPS (1536 SPF)
Bit depth : 16 bits
Compression mode : Lossy
Stream size : 477 MiB (16%)
Language : Ukrainian
Service kind : Complete Main
Default : Yes
Forced : Yes

Audio #2
ID : 3
Format : AC-3
Format/Info : Audio Coding 3
Codec ID : A_AC3
Duration : 2 h 28 min
Bit rate mode : Constant
Bit rate : 448 kb/s
Channel(s) : 6 channels
Channel positions : Front: L C R, Side: L R, LFE
Sampling rate : 48.0 kHz
Frame rate : 31.250 FPS (1536 SPF)
Bit depth : 16 bits
Compression mode : Lossy
Stream size : 477 MiB (16%)
Title : Original | DD 5.1 @ 448 kbps
Language : English
Service kind : Complete Main
Default : No
Forced : No

Text #1
ID : 4
Format : UTF-8
Codec ID : S_TEXT/UTF8
Codec ID/Info : UTF-8 Plain Text
Duration : 2 h 16 min
Bit rate : 11 b/s
Count of elements : 230
Stream size : 11.4 KiB (0%)
Title : [Forced]
Language : Ukrainian
Default : Yes
Forced : Yes

Text #2
ID : 5
Format : UTF-8
Codec ID : S_TEXT/UTF8
Codec ID/Info : UTF-8 Plain Text
Duration : 2 h 19 min
Bit rate : 74 b/s
Count of elements : 1608
Stream size : 76.2 KiB (0%)
Title : [Full]
Language : Ukrainian
Default : No
Forced : No

Text #3
ID : 6
Format : UTF-8
Codec ID : S_TEXT/UTF8
Codec ID/Info : UTF-8 Plain Text
Duration : 17 min 59 s
Bit rate : 5 b/s
Count of elements : 24
Stream size : 707 Bytes (0%)
Title : Forced
Language : English
Default : No
Forced : No

Text #4
ID : 7
Format : UTF-8
Codec ID : S_TEXT/UTF8
Codec ID/Info : UTF-8 Plain Text
Duration : 2 h 18 min
Bit rate : 44 b/s
Count of elements : 1582
Stream size : 45.3 KiB (0%)
Title : Full
Language : English
Default : No
Forced : No

Menu
00:00:00.000 : en:00:00:00.000
00:03:33.338 : en:00:03:33.338
00:08:04.734 : en:00:08:04.734
00:10:34.217 : en:00:10:34.217
00:15:11.410 : en:00:15:11.410
00:18:44.248 : en:00:18:44.248
00:22:43.529 : en:00:22:43.529
00:24:38.769 : en:00:24:38.769
00:29:05.619 : en:00:29:05.619
00:33:03.440 : en:00:33:03.440
00:37:11.896 : en:00:37:11.896
00:38:49.827 : en:00:38:49.827
00:41:06.923 : en:00:41:06.923
00:43:50.336 : en:00:43:50.336
00:50:05.377 : en:00:50:05.377
00:52:07.082 : en:00:52:07.082
00:55:11.391 : en:00:55:11.391
00:57:56.348 : en:00:57:56.348
01:01:04.661 : en:01:01:04.661
01:04:01.421 : en:01:04:01.421
01:06:39.829 : en:01:06:39.829
01:10:22.802 : en:01:10:22.802
01:13:00.459 : en:01:13:00.459
01:16:28.334 : en:01:16:28.334
01:18:48.724 : en:01:18:48.724
01:20:44.590 : en:01:20:44.590
01:22:46.962 : en:01:22:46.962
01:28:07.574 : en:01:28:07.574
01:31:19.057 : en:01:31:19.057
01:33:50.958 : en:01:33:50.958
01:39:22.373 : en:01:39:22.373
01:42:10.291 : en:01:42:10.291
01:44:32.016 : en:01:44:32.016
01:49:13.547 : en:01:49:13.547
01:51:00.862 : en:01:51:00.862
01:54:54.304 : en:01:54:54.304
01:59:15.940 : en:01:59:15.940
02:02:13.743 : en:02:02:13.743
02:04:30.504 : en:02:04:30.504
02:08:16.230 : en:02:08:16.230
02:13:27.583 : en:02:13:27.583
02:16:57.250 : en:02:16:57.250
02:19:19.809 : en:02:19:19.809
02:27:34.011 : en:02:27:34.011
Скріншоти



Дякую пану Demrandir за українську доріжку та саби
Джерело: &
Особиста оцінка: 8 - мені сподобалося
Люди Ікс: Дні минулого майбутнього [Розширена версія] / X-Men: Days of Future Past [The Rogue Cut] (2014) AVC Ukr/Eng | Sub Ukr/Eng

Люди Ікс: Дні минулого майбутнього [Розширена версія] / X-Men: Days of Future Past [The Rogue Cut] (2014) AVC Ukr/Eng | Sub Ukr/Eng


 Трекер:    Зареєстрований   

Завантажити / скачати фільм українською



відео для новачків



 Зареєстрований:   2018-10-25 10:43
 Розмір:   2.98 GB 
 Оцінка фільму:   9.3/10 (Голосів: 15)
   
Інші релізи
   Люди Ікс: Дні минулого майбутнього [Розширена версія] / X-Men: Days of Future Past [The Rogue Cut] (2014) 1080p Ukr/Eng | Sub Ukr/Eng Demrandir  5 / 0   13.93 GB   2016-02-04 14:41 
   Люди Ікс: Дні минулого майбутнього [Розширена версія] / X-Men: Days of Future Past [The Rogue Cut] (2014) [5.1 ] Український дубляж + вставки оригіналу | Sub Ukr Demrandir  1 / 0   477 MB   2016-02-04 14:22 
   Люди Ікс. Дні минулого майбутнього / X-Men: Days of Future Past (2014) 720p-mini Drool  1 / 0   2.81 GB   2014-10-10 07:19 
   Люди Ікс: Дні минулого майбутнього / X-Men: Days of Future Past (2014) 1080p 3D [Half OverUnder] Ukr/Eng | Sub Ukr/Eng 3d_reliz  4 / 0   11.26 GB   2014-10-08 11:34 
   Люди Ікс. Дні минулого майбутнього / X-Men. Days of Future Past (2014) 1080p H265 Ukr/Eng | Sub Ukr/Eng Tenax555  2 / 0   7.21 GB   2014-10-07 22:20 
   Люди Ікс. Дні минулого майбутнього / X-Men. Days of Future Past (2014) 1080p Ukr/Eng | Sub Ukr/Eng 11FrYkT  1 / 0   14.42 GB   2014-10-04 10:52 
   Люди Ікс. Дні минулого майбутнього / X-Men. Days of Future Past (2014) 720p Ukr/Eng | Sub Ukr/Eng 11FrYkT  3 / 0   5.55 GB   2014-10-04 08:42 
   Люди Ікс. Дні минулого майбутнього / X-Men. Days of Future Past (2014) DVD9 Eng/Rus/Cze/Ukr | Sub Multi yurka30  0 / 0   6.71 GB   2014-09-27 08:42 
bot 
робот


З нами з: 30.09.07
Востаннє: 26.05.05
Повідомлень: 22496

2018-10-25 10:43  
Тему перенесено з Анонси релізів до форуму Фільми


staf777

vovamakar 
Новенький


З нами з: 05.01.14
Востаннє: 14.08.19
Повідомлень: 1

2019-04-16 16:17  
Станьте хтось на роздачу
dreamer 
VIP


З нами з: 10.05.08
Востаннє: 20.11.19
Повідомлень: 536

2019-04-16 20:56  
щось таке...
Nahalist 
Поважний учасник


З нами з: 12.12.13
Востаннє: 20.11.19
Повідомлень: 206

2019-06-12 14:21  
самі робили, ??
Просто в мережі валяється такого розміру (2.91Gb) і майже такий розмір кадру, але 2412 kbps.

Ваш часовий пояс: GMT + 2 Години

Нова тема   Відповісти