Суперсімейка 2 / Incredibles 2 (2018) 1080p Ukr/Eng | Sub Eng

Нові коментарі

Нова тема   Відповісти
Автор Повідомлення
Anonymous 







2018-10-25 00:26  
Суперсімейка 2 / Incredibles 2 (2018) 1080p Ukr/Eng | Sub Eng

Усі українські постери:

























Жанр: анімаційний, бойовик, комедія, пригодницький, сімейний, фантастика
Країна: США



Кінокомпанія: Pixar Animation Studios, Walt Disney Pictures
Режисер: Бред Бірд / Brad Bird
Актори: Крейг Т. Нельсон, Холлі Хантер, Сара Вавелл, Хак Мілнер, Кетрін Кінер, Боб Оденкірк, Семюел Л. Джексон

Сюжет:
Після подій першої частини суперсімейка користується підвищеною увагою з боку журналістів. Несподівано виявилося, що чарівна Місіс Виняткова набагато краще виглядає на екрані телевізора, ніж її чоловік. Містеру виключно все частіше доводиться сидіти вдома і доглядати за дітьми, у кожного з яких є свої причини бути незадоволеним власними суперздатностями. Однак сімейним проблемам належить відступити на другий план, коли виявиться, що спокою Суперсімейки загрожує новий могутній ворог.
Офіційні українські промо та трейлери:

трейлер 1:


трейлер 2:


трейлер 3:


відео 1:


відео 2:


відео 3:


відео 4:


відео 5:

Рейтинг MPAA: PG - рекомендується присутність батьків
Вікова категорія: 6+
Тривалість: 01:57:50
Якість: 1080p

Відео:
кодек:
розмір кадру: 1920 х 804
бітрейт: 8300 кб/с

Аудіо # 1:
мова: українська
переклад: професійний дубльований | студія LeDoyen
кодек: 5.1
бітрейт: 640 кб/с

Аудіо # 2:
мова: українська
переклад: професійний дубльований | студія LeDoyen
кодек: 5.1
бітрейт: 1509 кб/с
примітка: українські доріжки однакові за змістом і відрізняються лише кодеком
Інформація про дубляж

Равшана Куркова
Анастасія Жарнікова
Єгор Скороходько
Катерина Буцька
Дмитро Вікулов
Олександр Солодкий
Таяна
Ірина Дорошенко
Олексій Череватенко
Наталія Сумська
Сергій Кияшко
Володимир Канівець
Олександр Шевчук
Михайло Войчук
Дмитро Бузинський
Володимир Бугай




Аудіо # 3:
мова: англійська
переклад: оригінал
кодек: 5.1
бітрейт: 1509 кб/с

Субтитри # 1:
мова: українська (форсовані)
тип: програмні (м'які)
формат: *.srt

Субтитри # 2-3:
мова: англійська (SDH, SDH кольорові)
тип: програмні (м'які)
формат: *.srt

Збережено оригінальні розділи, як на Blu-ray
Info
Код:
General
Unique ID                   : 323601763054926281708554780050962248668 (0xF3736EBBC105A4553469D5CCB643F3DC)
Complete name               : E:\Data4T\!Rel4T\Incredibles 2 (2018) [Ukr,Eng sub.Eng] 1080p [Hurtom].
Format                      :
Format version              : Version 4
File size                   : 9.85 GiB
Duration                    : 1 h 57 min
Overall bit rate            : 12.0 Mb/s
Movie name                  : Суперсімейка 2 / Incredibles 2 (2018) [Ukr,Eng sub.Eng] 1080p [Hurtom]
Released date               : 2018
Encoded date                : UTC 2018-11-04 10:05:59
Writing application         : v28.2.0 ('The Awakening') 64-bit
Writing library             : libebml v1.3.6 + v1.4.9
Cover                       : Yes
Comment                     : https://www.imdb.com/title/tt3606756/
Attachments                 : cover.jpg
DIRECTOR                    : Бред Бірд / Brad Bird
GENRE                       : анімаційний, бойовик, комедія, пригодницький, сімейний, фантастика
SYNOPSIS                    : Після подій першої частини суперсімейка користується підвищеною увагою з боку журналістів. Несподівано виявилося, що чарівна Місіс Виняткова набагато краще виглядає на екрані телевізора, ніж її чоловік. Містеру виключно все частіше доводиться сидіти вдома і доглядати за дітьми, у кожного з яких є свої причини бути незадоволеним власними суперздатностями. Однак сімейним проблемам належить відступити на другий план, коли виявиться, що спокою Суперсімейки загрожує новий могутній ворог...
Url                         : https://toloka.to/t95973

Video
ID                          : 1
Format                      : AVC
Format/Info                 : Advanced Video Codec
Format profile              : [email protected]
Format settings             : CABAC / 5 Ref Frames
Format settings, CABAC      : Yes
Format settings, ReFrames   : 5 frames
Codec ID                    : V_MPEG4/ISO/AVC
Duration                    : 1 h 57 min
Bit rate                    : 8 300 kb/s
Width                       : 1 920 pixels
Height                      : 804 pixels
Display aspect ratio        : 2.40:1
Frame rate mode             : Constant
Frame rate                  : 23.976 (24000/1001) FPS
Color space                 : YUV
Chroma subsampling          : 4:2:0
Bit depth                   : 8 bits
Scan type                   : Progressive
Bits/(Pixel*Frame)          : 0.224
Stream size                 : 6.83 GiB (69%)
Title                       : Суперсімейка 2 / Incredibles 2 (2018) 1080p
Writing library             : core 148 r2705kMod 3f5ed56
Encoding settings           : cabac=1 / ref=5 / deblock=1:-2:-2 / analyse=0x3:0x133 / me=umh / subme=10 / psy=1 / fade_compensate=0.00 / psy_rd=1.05:0.07 / mixed_ref=1 / me_range=24 / chroma_me=1 / trellis=2 / 8x8dct=1 / cqm=0 / deadzone=21,11 / fast_pskip=0 / chroma_qp_offset=-3 / threads=12 / lookahead_threads=2 / sliced_threads=0 / nr=0 / decimate=0 / interlaced=0 / bluray_compat=0 / constrained_intra=0 / fgo=0 / bframes=8 / b_pyramid=2 / b_adapt=2 / b_bias=0 / direct=3 / weightb=1 / open_gop=0 / weightp=2 / keyint=240 / keyint_min=23 / scenecut=40 / intra_refresh=0 / rc_lookahead=50 / rc=2pass / mbtree=0 / bitrate=8300 / ratetol=1.0 / qcomp=0.60 / qpmin=0 / qpmax=51 / qpstep=4 / cplxblur=20.0 / qblur=0.5 / vbv_maxrate=50000 / vbv_bufsize=62500 / nal_hrd=none / filler=0 / ip_ratio=1.40 / pb_ratio=1.30 / aq=3:0.80
Language                    : English
Default                     : Yes
Forced                      : No

Audio #1
ID                          : 2
Format                      : AC-3
Format/Info                 : Audio Coding 3
Commercial name             : Dolby Digital
Codec ID                    : A_AC3
Duration                    : 1 h 57 min
Bit rate mode               : Constant
Bit rate                    : 640 kb/s
Channel(s)                  : 6 channels
Channel layout              : L R C LFE Ls Rs
Sampling rate               : 48.0 kHz
Frame rate                  : 31.250 FPS (1536 SPF)
Bit depth                   : 16 bits
Compression mode            : Lossy
Stream size                 : 539 MiB (5%)
Title                       : Dub [LeDoyen] 5.1 640 Kbps [Hurtom]
Language                    : Ukrainian
Service kind                : Complete Main
Default                     : Yes
Forced                      : No

Audio #2
ID                          : 3
Format                      :
Format/Info                 : Digital Theater Systems
Codec ID                    : A_DTS
Duration                    : 1 h 57 min
Bit rate mode               : Constant
Bit rate                    : 1 509 kb/s
Channel(s)                  : 6 channels
Channel layout              : C L R Ls Rs LFE
Sampling rate               : 48.0 kHz
Frame rate                  : 93.750 FPS (512 SPF)
Bit depth                   : 24 bits
Compression mode            : Lossy
Stream size                 : 1.24 GiB (13%)
Title                       : Dub [LeDoyen] 5.1 1509 Kbps [Hurtom]
Language                    : Ukrainian
Default                     : No
Forced                      : No

Audio #3
ID                          : 4
Format                      :
Format/Info                 : Digital Theater Systems
Codec ID                    : A_DTS
Duration                    : 1 h 57 min
Bit rate mode               : Constant
Bit rate                    : 1 509 kb/s
Channel(s)                  : 6 channels
Channel layout              : C L R Ls Rs LFE
Sampling rate               : 48.0 kHz
Frame rate                  : 93.750 FPS (512 SPF)
Bit depth                   : 24 bits
Compression mode            : Lossy
Stream size                 : 1.24 GiB (13%)
Title                       : Original, 5.1 1509 Kbps
Language                    : English
Default                     : No
Forced                      : No

Text #1
ID                          : 5
Format                      : UTF-8
Codec ID                    : S_TEXT/UTF8
Codec ID/Info               : UTF-8 Plain Text
Duration                    : 1 h 53 min
Bit rate                    : 0 b/s
Count of elements           : 4
Stream size                 : 235 Bytes (0%)
Title                       : UKR Forced
Language                    : Ukrainian
Default                     : Yes
Forced                      : Yes

Text #2
ID                          : 6
Format                      : UTF-8
Codec ID                    : S_TEXT/UTF8
Codec ID/Info               : UTF-8 Plain Text
Duration                    : 1 h 54 min
Bit rate                    : 81 b/s
Count of elements           : 2326
Stream size                 : 68.8 KiB (0%)
Title                       : Eng SDH
Language                    : English
Default                     : No
Forced                      : No

Text #3
ID                          : 7
Format                      : UTF-8
Codec ID                    : S_TEXT/UTF8
Codec ID/Info               : UTF-8 Plain Text
Duration                    : 1 h 54 min
Bit rate                    : 124 b/s
Count of elements           : 2325
Stream size                 : 105 KiB (0%)
Title                       : Eng SDH Colored
Language                    : English
Default                     : No
Forced                      : No

Menu
00:00:00.000                : :00:00:00.000
00:03:22.327                : :00:03:22.327
00:08:53.616                : :00:08:53.616
00:09:36.784                : :00:09:36.784
00:13:38.276                : :00:13:38.276
00:15:44.735                : :00:15:44.735
00:21:19.737                : :00:21:19.737
00:23:28.282                : :00:23:28.282
00:27:08.794                : :00:27:08.794
00:28:59.571                : :00:28:59.571
00:35:10.900                : :00:35:10.900
00:39:07.845                : :00:39:07.845
00:42:43.894                : :00:42:43.894
00:43:42.411                : :00:43:42.411
00:47:35.352                : :00:47:35.352
00:48:53.889                : :00:48:53.889
00:54:15.585                : :00:54:15.585
00:56:16.039                : :00:56:16.039
01:00:58.696                : :01:00:58.696
01:02:01.884                : :01:02:01.884
01:06:55.511                : :01:06:55.511
01:09:18.237                : :01:09:18.237
01:11:28.200                : :01:11:28.200
01:12:37.686                : :01:12:37.686
01:14:39.266                : :01:14:39.266
01:18:00.968                : :01:18:00.968
01:20:32.536                : :01:20:32.536
01:25:01.930                : :01:25:01.930
01:27:59.440                : :01:27:59.440
01:31:53.925                : :01:31:53.925
01:33:26.434                : :01:33:26.434
01:36:25.237                : :01:36:25.237
01:37:45.192                : :01:37:45.192
01:43:56.897                : :01:43:56.897
01:45:35.912                : :01:45:35.912
01:47:30.902                : :01:47:30.902


Джерело:
Подяка Hanway'ю за якісний звук.

04.11.2018 реліз оновлено: відеоряд з до 'у, звук зі стерео на якісний 5.1, додано українські форсовані субтитри на 4 написи


 Трекер:    Зареєстрований   

Завантажити / скачати мультфільм українською



відео для новачків



 Зареєстрований:   2018-11-04 12:23
 Розмір:   9.85 GB 
 Оцінка мультфільму:   9.8/10 (Голосів: 68)
 ЗАЛИШАЙТЕСЬ ЯКОМОГА ДОВШЕ НА РОЗДАЧІ! ЗАВАНТАЖИВ САМ - ДАЙ ЗАВАНТАЖИТИ ІНШИМ.
   
Інші релізи
   Суперсімейка 2 / Incredibles 2 (2018) 1080p H.265 Ukr/Eng | Sub Eng -Star-Lord-  22 / 0   6.52 GB   2018-11-07 11:38 
   Суперсімейка 2 / Incredibles 2 (2018) 720p-mini Drool  18 / 0   1.67 GB   2018-11-06 17:53 
   Суперсімейка 2 / Incredibles 2 (2018) AVC Ukr/Eng | Sub Eng uafilm.tv  112 / 0   2.27 GB   2018-11-03 21:04 
   Суперсімейка 2 / Incredibles 2 (2018) 720p Ukr/Eng | Sub Eng 11FrYkT  46 / 1   6.26 GB   2018-11-03 20:57 
   Суперсімейка 2 / Incredibles 2 (2018) Remux 1080p Ukr/Eng | Sub Eng 11FrYkT  22 / 0   25.78 GB   2018-11-03 19:24 
   Суперсімейка 2 / Incredibles 2 (2018) 11FrYkT  67 / 4   1.46 GB   2018-11-03 19:23 
eGo.GreK 
Новенький


З нами з: 10.08.14
Востаннє: 30.11.18
Повідомлень: 1

2018-10-25 10:55  
Дякую за чудовий мульт!))
leicheman 
Відео Гуртом - підтримка та поширення
Відео Гуртом - підтримка та поширення


З нами з: 03.07.14
Востаннє: 14.12.18
Повідомлень: 3003

2018-10-25 15:05  
Це той випадок коли друга частина не гірша за першу.
mutomba 
VIP


З нами з: 20.10.13
Востаннє: 12.12.18
Повідомлень: 333

2018-10-25 18:23  
Подивився на одному диханні! Happy
Суперський мульт!

trofum911 
Поважний учасник


З нами з: 31.01.12
Востаннє: 25.11.18
Повідомлень: 163

2018-10-25 21:46  
Буде кращий звук?
Anonymous 







2018-10-26 08:43  
trofum911 написано:
Буде кращий звук?

Хоча автор відповідної теми зазначив 5.1 https://toloka.to/t78349-600#1033760 , але незрозуміло де і коли вона має бути. Можливо укр. 5.1 було анонсовано у молдовському тюнсі, але зараз там вона відсутня і до того ж ще жодна укр. 5.1 доріжка звідти не з'явилась в неті в загальному доступі.

Додано через 1 хвилину 28 секунд:

*це все стосувалось ліцензії

porto12 
Поважний учасник


З нами з: 28.10.08
Востаннє: 14.12.18
Повідомлень: 184

2018-10-26 22:45  
Був влітку у кіно. Хороший сиквел 10/10.
darklight94 
Новенький


З нами з: 08.07.18
Востаннє: 13.12.18
Повідомлень: 21

2018-11-01 14:23  
Коли BD з'явиться?
dsfrw 
Новенький


З нами з: 07.01.16
Востаннє: 08.12.18
Повідомлень: 6

2018-11-01 21:52  
darklight94 
Новенький


З нами з: 08.07.18
Востаннє: 13.12.18
Повідомлень: 21

2018-11-01 23:37  
dsfrw
Дякую

Anonymous 







2018-11-04 12:43  
Реліз оновлено: відеоряд з до 'у, звук зі стерео на якісний 5.1, додано українські форсовані субтитри на 4 написи

Додано через 14 хвилин 32 секунди:

"золото" на тиждень

armogun 
Поважний учасник


З нами з: 04.05.13
Востаннє: 13.12.18
Повідомлень: 217

2018-11-09 20:26  
мультиемоційний мульт, фантастика, Incredibles. Кращий дубляж 2018 - по-любе. Звук 5.1 повноцінний. Жонін просто неймовірний дублер
Ваш часовий пояс: GMT + 2 Години

Нова тема   Відповісти