Сiм / Seven / Se7en (1995) [Remastered] 1080p H.265 Ukr/Eng | Sub Eng

Нові коментарі

Нова тема   Відповісти
Автор Повідомлення
Anonymous 







2018-10-24 12:05  
Сiм / Seven / Se7en (1995) [Remastered] 1080p H.265 Ukr/Eng | Sub Eng

Сiм / Seven / Se7en (1995) [Remastered] 1080p H.265 Ukr/Eng | Sub Eng


Жанр: кримінальний, детектив, трилер
Країна: США
Кінокомпанія: Cecchi Gori Pictures, New Line Cinema
Режисер: Девід Фінчер / David Fincher
Актори: Бред Пітт / Brad Pitt, Морґан Фрімен / Morgan Freeman, Ґвінет Пелтроу / Gwyneth Paltrow, Кевін Спейсі / Kevin Spacey, Р. Лі Ермі / R. Lee Ermey, Річард Шіфф / Richard Schiff, Марк Бун Джуніор / Mark Boone Junior, Річард Раундтрі / Richard Roundtree, Джон Маꥳнлі / John C. McGinley, Реґ Е. Кеті / Reg E. Cathey

Сюжет:
Детектив Вільям Сомерсет, ветеран кримінального розшуку, мріє піти на пенсію і поїхати подалі від міста і його грішних мешканців. За 7 днів до пенсії на Сомерсета звалюються дві неприємності: молодий напарник Мілс і особливо витончене вбивство. Гострий розум досвідченого слідчого відразу визначає, що за цим злочином, швидше за все, підуть інші. Новини підтверджують його здогад. Зрозумівши, що вбивця карає свої жертви за вчинені ними смертні гріхи, детектив постає перед вибором: повернутися до роботи, чи піти і передати справу своєму менш досвідченому напарникові?

Захопливий сюжет, яскрава акторська гра, натуралізм фільму – все це тримає глядача в напрузі до останнього кадру.

Тривалість: 02:06:49
Якість: [Remastered]

Відео:
кодек: H.265 (HEVC)
розмір кадру: 1920 x 800
бітрейт: 10 653 кб/с
бітова глибина: 10 біт

Увага! Перед завантаженням переконайтесь, що ваш пристрій відтворення (та/або ПЗ) підтримує H.265 (HEVC)

Аудіо # 1:
мова: українська
переклад: багатоголосий закадровий
кодек: AC-3 2.0
бітрейт: 192 кб/с

Аудіо # 2:
мова: англійська
переклад: оригінал
кодек: AC-3 5.1
бітрейт: 640 кб/с

Субтитри # 1: (Full)
мова: англійська
тип: програмні (м'які)
формат: *.srt


Info
Код:
General
Unique ID                                : 319688131879141273542446710828411550983 (0xF081B1D1A4392C45D28CF83188227D07)
Complete name                            : Se7en (1995) [Remastered] 1080p H.265 [UKR_ENG] [Hurtom].
Format                                   :
Format version                           : Version 4
File size                                : 10.2 GiB
Duration                                 : 2 h 6 min
Overall bit rate                         : 11.5 Mb/s
Movie name                               : Сiм / Seven / Se7en (1995) [Remastered]
Encoded date                             : UTC 2019-09-03 11:51:59
Writing application                      : v20.0.0 ('I Am The Sun') 64-bit
Writing library                          : libebml v1.3.5 + v1.4.8
Cover                                    : Yes
Attachments                              : Cover.jpg

Video
ID                                       : 1
Format                                   : HEVC
Format/Info                              : High Efficiency Video Coding
Format profile                           : Main [email protected]@High
Codec ID                                 : V_MPEGH/ISO/HEVC
Duration                                 : 2 h 6 min
Bit rate                                 : 10.7 Mb/s
Width                                    : 1 920 pixels
Height                                   : 800 pixels
Display aspect ratio                     : 2.40:1
Frame rate mode                          : Constant
Frame rate                               : 23.976 (23976/1000) FPS
Original frame rate                      : 23.976 (24000/1001) FPS
Color space                              : YUV
Chroma subsampling                       : 4:2:0
Bit depth                                : 10 bits
Bits/(Pixel*Frame)                       : 0.289
Stream size                              : 9.44 GiB (93%)
Title                                    : Сiм / Seven / Se7en (1995) [Remastered]
Writing library                          : x265 3.0_Au+10-74a8672ea4f7:[Windows][GCC 8.3.0][64 bit] 10bit
Encoding settings                        : cpuid=1111039 / frame-threads=4 / numa-pools=16 / wpp / no-pmode / no-pme / no-psnr / no-ssim / log-level=2 / input-csp=1 / input-res=1920x800 / interlace=0 / total-frames=182448 / level-idc=41 / high-tier=1 / uhd-bd=0 / ref=5 / no-allow-non-conformance / no-repeat-headers / annexb / no-aud / no-hrd / info / hash=0 / no-temporal-layers / open-gop / min-keyint=23 / keyint=240 / gop-lookahead=0 / bframes=12 / b-adapt=2 / b-pyramid / bframe-bias=0 / rc-lookahead=60 / lookahead-slices=0 / scenecut=40 / radl=0 / no-splice / no-intra-refresh / ctu=32 / min-cu-size=8 / rect / amp / max-tu-size=32 / tu-inter-depth=4 / tu-intra-depth=4 / limit-tu=1 / rdoq-level=2 / dynamic-rd=0.00 / no-ssim-rd / signhide / tskip / nr-intra=0 / nr-inter=0 / no-constrained-intra / no-strong-intra-smoothing / max-merge=5 / limit-refs=0 / no-limit-modes / me=3 / subme=7 / merange=57 / temporal-mvp / weightp / weightb / no-analyze-src-pics / deblock=-3:-3 / no-sao / no-sao-non-deblock / rd=6 / no-early-skip / no-rskip / no-fast-intra / no-tskip-fast / no-cu-lossless / b-intra / no-splitrd-skip / rdpenalty=0 / psy-rd=1.00 / psy-rdoq=1.00 / no-rd-refine / no-lossless / cbqpoffs=0 / crqpoffs=0 / rc=crf / crf=18.0 / qcomp=0.60 / qpstep=4 / stats-write=0 / stats-read=0 / vbv-maxrate=50000 / vbv-bufsize=50000 / vbv-init=0.9 / crf-max=0.0 / crf-min=0.0 / ipratio=1.40 / pbratio=1.30 / aq-mode=2 / aq-strength=0.70 / no-cutree / zone-count=0 / no-strict-cbr / qg-size=32 / no-rc-grain / qpmax=69 / qpmin=0 / no-const-vbv / sar=1 / overscan=0 / videoformat=5 / range=0 / colorprim=1 / transfer=1 / colormatrix=1 / chromaloc=0 / display-window=0 / max-cll=0,0 / min-luma=0 / max-luma=1023 / log2-max-poc-lsb=8 / vui-timing-info / vui-hrd-info / slices=1 / no-opt-qp-pps / no-opt-ref-list-length-pps / no-multi-pass-opt-rps / scenecut-bias=0.05 / no-opt-cu-delta-qp / no-aq-motion / no-hdr / no-hdr-opt / no-dhdr10-opt / no-idr-recovery-sei / analysis-reuse-level=5 / scale-factor=0 / refine-intra=0 / refine-inter=0 / refine-mv=0 / refine-ctu-distortion=0 / no-limit-sao / ctu-info=0 / no-lowpass-dct / refine-analysis-type=0 / copy-pic=1 / max-ausize-factor=1.0 / no-dynamic-refine / no-single-sei / no-hevc-aq / no-svt / qp-adaptation-range=1.00
Language                                 : English
Default                                  : Yes
Forced                                   : No
Color range                              : Limited
Color primaries                          : BT.709
Transfer characteristics                 : BT.709
Matrix coefficients                      : BT.709

Audio #1
ID                                       : 2
Format                                   : AC-3
Format/Info                              : Audio Coding 3
Commercial name                          : Dolby Digital
Codec ID                                 : A_AC3
Duration                                 : 2 h 6 min
Bit rate mode                            : Constant
Bit rate                                 : 192 kb/s
Channel(s)                               : 2 channels
Channel layout                           : L R
Sampling rate                            : 48.0 kHz
Frame rate                               : 31.250 FPS (1536 SPF)
Bit depth                                : 16 bits
Compression mode                         : Lossy
Stream size                              : 174 MiB (2%)
Title                                    : / 2.0 Ch / 192 kbps / БЗ / Inter
Language                                 : Ukrainian
Service kind                             : Complete Main
Default                                  : Yes
Forced                                   : Yes

Audio #2
ID                                       : 3
Format                                   : AC-3
Format/Info                              : Audio Coding 3
Commercial name                          : Dolby Digital
Codec ID                                 : A_AC3
Duration                                 : 2 h 6 min
Bit rate mode                            : Constant
Bit rate                                 : 640 kb/s
Channel(s)                               : 6 channels
Channel layout                           : L R C LFE Ls Rs
Sampling rate                            : 48.0 kHz
Frame rate                               : 31.250 FPS (1536 SPF)
Bit depth                                : 16 bits
Compression mode                         : Lossy
Stream size                              : 581 MiB (6%)
Title                                    : / 5.1 Ch / 640 kbps / Original
Language                                 : English
Service kind                             : Complete Main
Default                                  : No
Forced                                   : No

Text
ID                                       : 4
Format                                   : UTF-8
Codec ID                                 : S_TEXT/UTF8
Codec ID/Info                            : UTF-8 Plain Text
Duration                                 : 2 h 0 min
Bit rate                                 : 61 b/s
Count of elements                        : 1548
Stream size                              : 54.4 KiB (0%)
Title                                    : Full
Language                                 : English
Default                                  : Yes
Forced                                   : No

Menu
00:00:00.000                             : en:Chapter 1
00:04:08.756                             : en:Chapter 2
00:06:17.218                             : en:Chapter 3
00:07:31.959                             : en:Chapter 4
00:14:45.726                             : en:Chapter 5
00:17:05.866                             : en:Chapter 6
00:18:09.930                             : en:Chapter 7
00:21:40.473                             : en:Chapter 8
00:24:25.138                             : en:Chapter 9
00:29:26.773                             : en:Chapter 10
00:30:25.331                             : en:Chapter 11
00:33:11.330                             : en:Chapter 12
00:37:26.585                             : en:Chapter 13
00:42:21.880                             : en:Chapter 14
00:43:30.949                             : en:Chapter 15
00:47:41.533                             : en:Chapter 16
00:50:16.688                             : en:Chapter 17
00:54:22.934                             : en:Chapter 18
00:57:26.584                             : en:Chapter 19
01:01:43.090                             : en:Chapter 20
01:04:17.828                             : en:Chapter 21
01:07:24.682                             : en:Chapter 22
01:14:43.120                             : en:Chapter 23
01:20:32.302                             : en:Chapter 24
01:24:05.515                             : en:Chapter 25
01:25:02.572                             : en:Chapter 26
01:28:13.596                             : en:Chapter 27
01:33:03.385                             : en:Chapter 28
01:33:56.939                             : en:Chapter 29
01:36:45.407                             : en:Chapter 30
01:39:02.544                             : en:Chapter 31
01:40:52.154                             : en:Chapter 32
01:44:03.178                             : en:Chapter 33
01:50:52.253                             : en:Chapter 34
01:53:04.385                             : en:Chapter 35
01:56:55.116                             : en:Chapter 36
02:01:58.402                             : en:Chapter 37
Світлини




Джерело: &
Особиста оцінка: 0 - не дивився


Срібний реліз (на рейтинг впливає 50% завантаженого)
 Трекер:    Зареєстрований   

Завантажити / скачати фільм українською



відео для новачків



 Зареєстрований:   2019-09-03 19:11
 Розмір:   10.18 GB 
 Оцінка фільму:   10/10 (Голосів: 23)
   
Maksdvir 
Новенький


З нами з: 04.01.18
Востаннє: 20.09.20
Повідомлень: 10

2019-07-04 18:49  
Чи є на сайті без H.265 (HEVC) але в 1080
Lyolic 
VIP


З нами з: 04.08.09
Востаннє: 21.09.20
Повідомлень: 541

2019-07-04 19:38  
Maksdvir
На сайті ж є чудовий пошук )
https://toloka.to/t44537

Anonymous 







2019-09-03 19:11  
Замінено відеоряд на якісніший.
007kolya1985 
Частий відвідувач


З нами з: 18.04.12
Востаннє: 11.05.20
Повідомлень: 43

2020-03-22 11:22  
Фільм шедевр 10
Ваш часовий пояс: GMT + 2 Години

Нова тема   Відповісти