Перл Гарбор / Pearl Harbor (2001) 1080p H.265 2xUkr/Eng | Sub Ukr/Eng

Нові коментарі

Нова тема   Відповісти
Автор Повідомлення
Anonymous 







2018-10-24 11:51  
Перл Гарбор / Pearl Harbor (2001) 1080p H.265 2xUkr/Eng | Sub Ukr/Eng

Перл Гарбор / Pearl Harbor (2001) 1080p H.265 2xUkr/Eng | Sub Ukr/Eng


Жанр: драма, екшн, мелодрама
Країна: США



Кінокомпанія: Touchstone Pictures
Режисер: Майкл Бей / Michael Bay
Актори: Бен Аффлек / Ben Affleck, Джош Гартнет / Josh Hartnett, Кейт Бекінсейл / Kate Beckinsale, Куба Гудінг молодший /Cuba Gooding Jr./, Джон Войт / Jon Voight, Алек Болдвін / Alec Baldwin, та інші

Сюжет:
1941 рік, США. Вся Європа під владою нацистів, німецькі танки підходять до Москви. Відокремлена двома океанами від бушуючого полум'я Другої Світової, Америка продовжує жити нормальним життям - зімається кіно, люди ходять у ресторани, на танці, закохуюються, одружуються... Проте, Імператор Японії вже віддав наказ, і сотні літаків наближаються до Перл Гарбору, головної бази військово-морського флоту США...

Ця історія про двох друзів-пілотів. Їхні долі переплелися в жахливі часи Другої світової війни. Вогонь став для них рідним домом. Світ руйнувався, минуле сховалося у сутінках вогнищ, і тепер кожен повинен був боротися за своє майбутнє, на землі і на небі, в дружбі й ворожнечі.


Тривалість: 03:03:05
Якість:
Відео:
кодек: H.265 (HEVC)
розмір кадру: 1920 х 804
бітрейт: 5 608 кб/с
бітова глибина: 10 біт
Увага! Перед завантаженням переконайтесь, що ваш пристрій відтворення (та/або ПЗ) підтримує H.265 (HEVC)

Аудіо # 1:
мова: українська
переклад: багатоголосий закадровий
кодек: 2.0
бітрейт: 192 кб/с

Аудіо # 2:
мова: українська
переклад: багатоголосий закадровий
кодек: 5.1
бітрейт: 384 кб/с

Аудіо # 3:
мова: англійська
переклад: оригінал
кодек: 5.1
бітрейт: 640 кб/с

Субтитри # 1:
мова: українська
тип: програмні (м'які)
формат: *.srt

Субтитри # 2:
мова: англійська
тип: програмні (м'які)
формат: *.srt


Info
Код:
General
Unique ID                                : 132869535786050029759491173070528355170 (0x63F5BDE46C754B8CBA2A60852BB09B62)
Complete name                            : F:\Video\Pearl Harbor (2001) 1080p H.265 [2xUKR_ENG].
Format                                   :
Format version                           : Version 4 / Version 2
File size                                : 8.73 GiB
Duration                                 : 3 h 3 min
Overall bit rate                         : 6 828 kb/s
Movie name                               : Pearl Harbor (2001)
Encoded date                             : UTC 2018-10-23 12:02:58
Writing application                      : v20.0.0 ('I Am The Sun') 32-bit
Writing library                          : libebml v1.3.5 + v1.4.8
Cover                                    : Yes
Attachments                              : Cover.jpg

Video
ID                                       : 1
Format                                   : HEVC
Format/Info                              : High Efficiency Video Coding
Format profile                           : Main [email protected]@High
Codec ID                                 : V_MPEGH/ISO/HEVC
Duration                                 : 3 h 3 min
Bit rate                                 : 5 608 kb/s
Width                                    : 1 918 pixels
Height                                   : 804 pixels
Display aspect ratio                     : 2.40:1
Frame rate mode                          : Constant
Frame rate                               : 23.976 (24000/1001) FPS
Color space                              : YUV
Chroma subsampling                       : 4:2:0
Bit depth                                : 10 bits
Bits/(Pixel*Frame)                       : 0.152
Stream size                              : 7.17 GiB (82%)
Writing library                          : x265 2.8+19-bcdc610cf5f0:[Windows][GCC 7.3.0][64 bit] 10bit
Encoding settings                        : cpuid=1111039 / frame-threads=13 / numa-pools=12 / wpp / no-pmode / no-pme / no-psnr / no-ssim / log-level=3 / input-csp=1 / input-res=1918x804 / interlace=0 / total-frames=0 / level-idc=51 / high-tier=1 / uhd-bd=0 / ref=3 / allow-non-conformance / no-repeat-headers / annexb / no-aud / no-hrd / info / hash=0 / no-temporal-layers / open-gop / min-keyint=24 / keyint=240 / gop-lookahead=0 / bframes=7 / b-adapt=2 / b-pyramid / bframe-bias=0 / rc-lookahead=40 / lookahead-slices=5 / scenecut=40 / radl=0 / no-intra-refresh / ctu=64 / min-cu-size=8 / rect / amp / max-tu-size=32 / tu-inter-depth=1 / tu-intra-depth=1 / limit-tu=0 / rdoq-level=0 / dynamic-rd=0.00 / no-ssim-rd / signhide / no-tskip / nr-intra=0 / nr-inter=0 / no-constrained-intra / no-strong-intra-smoothing / max-merge=2 / limit-refs=3 / no-limit-modes / me=3 / subme=7 / merange=57 / temporal-mvp / weightp / no-weightb / no-analyze-src-pics / deblock=-3:-3 / no-sao / no-sao-non-deblock / rd=3 / no-early-skip / rskip / no-fast-intra / no-tskip-fast / no-cu-lossless / no-b-intra / no-splitrd-skip / rdpenalty=0 / psy-rd=2.00 / psy-rdoq=0.00 / no-rd-refine / no-lossless / cbqpoffs=0 / crqpoffs=0 / rc=crf / crf=21.0 / qcomp=0.60 / qpstep=4 / stats-write=0 / stats-read=0 / vbv-maxrate=160000 / vbv-bufsize=160000 / vbv-init=0.9 / crf-max=0.0 / crf-min=0.0 / ipratio=1.40 / pbratio=1.30 / aq-mode=1 / aq-strength=1.00 / cutree / zone-count=0 / no-strict-cbr / qg-size=32 / no-rc-grain / qpmax=69 / qpmin=0 / no-const-vbv / sar=1 / overscan=0 / videoformat=5 / range=0 / colorprim=1 / transfer=1 / colormatrix=1 / chromaloc=0 / display-window=0 / max-cll=0,0 / min-luma=0 / max-luma=1023 / log2-max-poc-lsb=8 / vui-timing-info / vui-hrd-info / slices=1 / no-opt-qp-pps / no-opt-ref-list-length-pps / no-multi-pass-opt-rps / scenecut-bias=0.05 / no-opt-cu-delta-qp / no-aq-motion / no-hdr / no-hdr-opt / no-dhdr10-opt / no-idr-recovery-sei / analysis-reuse-level=5 / scale-factor=0 / refine-intra=0 / refine-inter=0 / refine-mv=0 / no-limit-sao / ctu-info=0 / no-lowpass-dct / refine-mv-type=0 / copy-pic=1 / max-ausize-factor=1.0 / no-dynamic-refine / no-single-sei
Default                                  : Yes
Forced                                   : No
Color range                              : Limited
Color primaries                          : BT.709
Transfer characteristics                 : BT.709
Matrix coefficients                      : BT.709

Audio #1
ID                                       : 2
Format                                   : AC-3
Format/Info                              : Audio Coding 3
Codec ID                                 : A_AC3
Duration                                 : 3 h 3 min
Bit rate mode                            : Constant
Bit rate                                 : 192 kb/s
Channel(s)                               : 2 channels
Channel positions                        : Front: L R
Sampling rate                            : 48.0 kHz
Frame rate                               : 31.250 FPS (1536 SPF)
Bit depth                                : 16 bits
Compression mode                         : Lossy
Stream size                              : 251 MiB (3%)
Title                                    : 1+1
Language                                 : Ukrainian
Service kind                             : Complete Main
Default                                  : Yes
Forced                                   : No

Audio #2
ID                                       : 3
Format                                   : AC-3
Format/Info                              : Audio Coding 3
Codec ID                                 : A_AC3
Duration                                 : 3 h 3 min
Bit rate mode                            : Constant
Bit rate                                 : 384 kb/s
Channel(s)                               : 6 channels
Channel positions                        : Front: L C R, Side: L R, LFE
Sampling rate                            : 48.0 kHz
Frame rate                               : 31.250 FPS (1536 SPF)
Bit depth                                : 16 bits
Compression mode                         : Lossy
Stream size                              : 503 MiB (6%)
Title                                    : NTN
Language                                 : Ukrainian
Service kind                             : Complete Main
Default                                  : No
Forced                                   : No

Audio #3
ID                                       : 4
Format                                   : AC-3
Format/Info                              : Audio Coding 3
Codec ID                                 : A_AC3
Duration                                 : 3 h 3 min
Bit rate mode                            : Constant
Bit rate                                 : 640 kb/s
Channel(s)                               : 6 channels
Channel positions                        : Front: L C R, Side: L R, LFE
Sampling rate                            : 48.0 kHz
Frame rate                               : 31.250 FPS (1536 SPF)
Bit depth                                : 16 bits
Compression mode                         : Lossy
Stream size                              : 838 MiB (9%)
Title                                    : Original
Language                                 : English
Service kind                             : Complete Main
Default                                  : No
Forced                                   : No

Text #1
ID                                       : 5
Format                                   : UTF-8
Codec ID                                 : S_TEXT/UTF8
Codec ID/Info                            : UTF-8 Plain Text
Duration                                 : 2 h 51 min
Bit rate                                 : 81 b/s
Count of elements                        : 1912
Stream size                              : 103 KiB (0%)
Language                                 : Ukrainian
Default                                  : Yes
Forced                                   : No

Text #2
ID                                       : 6
Format                                   : UTF-8
Codec ID                                 : S_TEXT/UTF8
Codec ID/Info                            : UTF-8 Plain Text
Duration                                 : 2 h 51 min
Bit rate                                 : 54 b/s
Count of elements                        : 1849
Stream size                              : 68.5 KiB (0%)
Language                                 : English
Default                                  : No
Forced                                   : No

Menu
00:00:00.000                             : :Chapter 01
00:04:42.031                             : :Chapter 02
00:04:59.090                             : :Chapter 03
00:08:30.760                             : :Chapter 04
00:10:50.900                             : :Chapter 05
00:16:49.675                             : :Chapter 06
00:20:08.123                             : :Chapter 07
00:23:23.151                             : :Chapter 08
00:31:04.612                             : :Chapter 09
00:34:34.405                             : :Chapter 10
00:40:33.889                             : :Chapter 11
00:43:43.287                             : :Chapter 12
00:47:21.797                             : :Chapter 13
00:52:07.874                             : :Chapter 14
00:58:47.273                             : :Chapter 15
01:01:53.418                             : :Chapter 16
01:06:06.253                             : :Chapter 17
01:12:15.372                             : :Chapter 18
01:16:36.216                             : :Chapter 19
01:20:39.626                             : :Chapter 20
01:25:21.825                             : :Chapter 21
01:27:48.054                             : :Chapter 22
01:31:54.926                             : :Chapter 23
01:35:53.247                             : :Chapter 24
01:40:55.424                             : :Chapter 25
01:44:36.561                             : :Chapter 26
01:46:40.977                             : :Chapter 27
01:52:22.235                             : :Chapter 28
01:56:50.211                             : :Chapter 29
01:59:33.249                             : :Chapter 30
02:04:33.340                             : :Chapter 31
02:08:47.344                             : :Chapter 32
02:12:28.065                             : :Chapter 33
02:18:44.190                             : :Chapter 34
02:23:01.948                             : :Chapter 35
02:26:41.042                             : :Chapter 36
02:30:34.233                             : :Chapter 37
02:35:56.930                             : :Chapter 38
02:40:09.474                             : :Chapter 39
02:43:28.340                             : :Chapter 40
02:45:21.077                             : :Chapter 41
02:48:59.170                             : :Chapter 42
02:51:06.756                             : :Chapter 43
02:52:34.761                             : :Chapter 44
03:03:05.015                             : :Chapter 45
Скріншоти




Джерело:
Особиста оцінка: 0 - не дивився


Срібний реліз (на рейтинг впливає 50% завантаженого)
 Трекер:    Зареєстрований   

Завантажити / скачати фільм українською



відео для новачків



 Зареєстрований:   2018-10-24 11:51
 Розмір:   8.73 GB 
 Оцінка фільму:   10/10 (Голосів: 12)
   
Ваш часовий пояс: GMT + 2 Години

Нова тема   Відповісти