Лофт / The Loft (2014) 720p Ukr/Eng | Sub Eng

Нові коментарі

Нова тема   Відповісти
Автор Повідомлення
staf777 
Відео Гуртом - підтримка та поширення
Відео Гуртом - підтримка та поширення


З нами з: 16.11.16
Востаннє: 24.09.20
Повідомлень: 4032

2018-10-24 11:37  
Лофт / The Loft (2014) 720p Ukr/Eng | Sub Eng

Лофт / The Loft (2014) 720p Ukr/Eng | Sub Eng

Оригінальна обкладинка

Лофт / The Loft (2014) 720p Ukr/Eng | Sub Eng
Жанр: драма, трилер
Країна: Бельгія, США



Кінокомпанія: Open Road Films, De Vijver Media, Woestijnvis
Режисер: Ерік Ван Лой
Актори: Карл Урбан, Джеймс Марсден, Вентворт Міллер та інші

Сюжет:
П'ятеро одружених друзів вирішують спільно зняти респектабельну квартиру, щоб приводити туди коханок і реалізовувати свої сексуальні фантазії. Проте одного разу вони знаходять в квартирі оголене тіло вбитої жінки. Тепер усі п'ятеро підозрюють у вбивстві один одного...


Тривалість: 01:42:59
Якість: 720p
Відео:
кодек:
розмір кадру: 1280x534
бітрейт: 7647 кб/с

Аудіо # 1:
мова: українська
переклад: багатоголосий закадровий
кодек: 2.0
бітрейт: 192 кб/с

Аудіо # 2:
мова: англійська
переклад: оригінал
кодек: 5.1
бітрейт: 1509 кб/с

Субтитри :
мова: англійська
тип: програмні (м'які)
формат: *.srt
Info
General
Unique ID : 142696692274783169464336656074300104499 (0x6B5A621D705A08C2FE7DCF6E94029F33)
Complete name : G:\Трилер\The Loft (2014) 720p [UKR_ENG] [Hurtom].
Format :
Format version : Version 4 / Version 2
File size : 6.73 GiB
Duration : 1 h 42 min
Overall bit rate : 9 351 kb/s
Movie name : The Loft (2014) 720p [UKR_ENG] [Hurtom]
Encoded date : UTC 2018-10-24 12:37:09
Writing application : v24.0.0 ('Beyond The Pale') 64-bit
Writing library : libebml v1.3.6 + v1.4.9
Cover : Yes
Attachments : cover.jpg

Video
ID : 1
Format : AVC
Format/Info : Advanced Video Codec
Format profile : [email protected]
Format settings : CABAC / 12 Ref Frames
Format settings, CABAC : Yes
Format settings, ReFrames : 12 frames
Codec ID : V_MPEG4/ISO/AVC
Duration : 1 h 42 min
Bit rate : 7 647 kb/s
Width : 1 280 pixels
Height : 534 pixels
Display aspect ratio : 2.40:1
Frame rate mode : Constant
Frame rate : 23.976 (24000/1001) FPS
Color space : YUV
Chroma subsampling : 4:2:0
Bit depth : 8 bits
Scan type : Progressive
Bits/(Pixel*Frame) : 0.467
Stream size : 5.50 GiB (82%)
Writing library : core 142 r2431+42 c69a006 tMod [[email protected] X86_64]
Encoding settings : cabac=1 / ref=12 / deblock=1:-3:-3 / analyse=0x3:0x133 / me=umh / subme=10 / psy=1 / fade_compensate=0.00 / psy_rd=1.00:0.00 / mixed_ref=1 / me_range=24 / chroma_me=1 / trellis=2 / 8x8dct=1 / cqm=0 / deadzone=21,11 / fast_pskip=0 / chroma_qp_offset=-2 / threads=24 / lookahead_threads=4 / sliced_threads=0 / nr=0 / decimate=0 / interlaced=0 / bluray_compat=0 / constrained_intra=0 / fgo=0 / bframes=8 / b_pyramid=2 / b_adapt=2 / b_bias=0 / direct=3 / weightb=1 / open_gop=0 / weightp=2 / keyint=250 / keyint_min=23 / scenecut=40 / intra_refresh=0 / rc=crf / mbtree=0 / crf=16.0000 / qcomp=0.65 / qpmin=0:0:0 / qpmax=69:69:69 / qpstep=4 / ip_ratio=1.30 / pb_ratio=1.20 / aq=3:0.75 / aq-sensitivity=10.00 / aq-factor=1.00:1.00:1.00 / aq2=0 / aq3=0
Language : English
Default : Yes
Forced : No

Audio #1
ID : 2
Format : AC-3
Format/Info : Audio Coding 3
Codec ID : A_AC3
Duration : 1 h 42 min
Bit rate mode : Constant
Bit rate : 192 kb/s
Channel(s) : 2 channels
Channel positions : Front: L R
Sampling rate : 48.0 kHz
Frame rate : 31.250 FPS (1536 SPF)
Bit depth : 16 bits
Compression mode : Lossy
Stream size : 141 MiB (2%)
Title : [UA-MVO]
Language : Ukrainian
Service kind : Complete Main
Default : Yes
Forced : Yes

Audio #2
ID : 3
Format :
Format/Info : Digital Theater Systems
Codec ID : A_DTS
Duration : 1 h 42 min
Bit rate mode : Constant
Bit rate : 1 509 kb/s
Channel(s) : 6 channels
Channel positions : Front: L C R, Side: L R, LFE
Sampling rate : 48.0 kHz
Frame rate : 93.750 FPS (512 SPF)
Bit depth : 24 bits
Compression mode : Lossy
Stream size : 1.09 GiB (16%)
Language : English
Default : No
Forced : No

Text
ID : 4
Format : UTF-8
Codec ID : S_TEXT/UTF8
Codec ID/Info : UTF-8 Plain Text
Duration : 1 h 36 min
Bit rate : 81 b/s
Count of elements : 1797
Stream size : 58.0 KiB (0%)
Language : English
Default : No
Forced : No

Menu
00:00:00.000 : en:00:00:00.000
00:04:30.479 : en:00:04:30.479
00:10:29.087 : en:00:10:29.087
00:14:26.616 : en:00:14:26.616
00:20:08.582 : en:00:20:08.582
00:26:40.599 : en:00:26:40.599
00:32:04.548 : en:00:32:04.548
00:38:04.407 : en:00:38:04.407
00:42:38.806 : en:00:42:38.806
00:46:53.978 : en:00:46:53.978
00:50:19.600 : en:00:50:19.600
00:54:29.099 : en:00:54:29.099
01:01:50.957 : en:01:01:50.957
01:08:45.621 : en:01:08:45.621
01:13:09.093 : en:01:13:09.093
01:20:52.723 : en:01:20:52.723
01:25:55.817 : en:01:25:55.817
01:30:09.404 : en:01:30:09.404
01:35:45.782 : en:01:35:45.782
01:37:45.985 : en:01:37:45.985
Скріншоти




Запис звуку - Sando7 Синхронізація - krigg070
Джерело: &
Особиста оцінка: 0 - не дивився


 Трекер:    Зареєстрований   

Завантажити / скачати фільм українською



відео для новачків



 Зареєстрований:   2018-10-24 21:25
 Розмір:   6.73 GB 
 Оцінка фільму:   8.6/10 (Голосів: 9)
   
Інші релізи
   Лофт / The Loft (2014) 1080p Ukr/Eng | Sub Eng staf777  3 / 0   11.22 GB   2018-01-26 10:55 
   Лофт / The Loft (2014) AVC krigg070  2 / 0   1.28 GB   2017-12-13 23:40 
bot 
робот


З нами з: 30.09.07
Востаннє: 26.05.05
Повідомлень: 25583

2018-10-24 21:24  
Тему перенесено з Анонси релізів до форуму Фільми в HD


staf777

Ваш часовий пояс: GMT + 2 Години

Нова тема   Відповісти