Суперсімейка 2 / Incredibles 2 (2018) 1080p H.265 Ukr/Eng | Sub Eng

Нові коментарі

Нова тема   Відповісти
Автор Повідомлення
-Star-Lord- 
VIP


З нами з: 09.08.18
Востаннє: 14.12.18
Повідомлень: 342

2018-10-24 09:57  
Суперсімейка 2 / Incredibles 2 (2018) 1080p H.265 Ukr/Eng | Sub Eng

Суперсімейка 2 / Incredibles 2 (2018) 1080p H.265 Ukr/Eng | Sub Eng


Жанр: Мультфільм, Бойовик, Комедія, Пригоди, Сімейний, Фантастика
Країна: США



Кінокомпанія: Pixar Animation Studios, Walt Disney Pictures
Режисер: Бред Берд
Актори: Крейг Т. Нельсон, Голлі Гантер, Сара Вавелл, Хак Мілнер, Кетрін Кінер, Ілай Фучіле, Боб Оденкірк, Семюел Л. Джексон, Софія Буш

Сюжет:
Не зважаючи на героїчний порятунок цілого міста від небезпечного лиходія, усі супергерої лишаються поза законом. Але мільярдер Уїнстон Дівор знає як це можна було б виправити. Давній шанувальник сімейки Парр, Дівор пропонує влаштувати загальнонаціональну піар-кампанію і повернути супергероям їх колишній статус. Але для того, щоб змінити відношення громадськості на користь супергероїв, Дівор наполягає на тому, щоб подвиги здійснювала лише Еластика, адже місіс Гелен Парр, на відміну від свого могутнього чоловіка Містера Неймовірного, не руйнує все на своєму шляху, коли бореться з негідниками. Так що Боб змушений залишитись вдома та доглядати дітей, а Гелен стає суперзіркою…


Тривалість: 01:57:49
Якість:
Відео:
кодек: H.265 (HEVC)
розмір кадру: 1920 х 804
бітрейт: 5 962 кб/с
бітова глибина: 10 біт
Увага! Перед завантаженням переконайтесь, що ваш пристрій відтворення (та/або ПЗ) підтримує H.265 (HEVC)

Аудіо # 1:
мова: українська
переклад: професійний дубльований | студія LeDoyen
кодек: 5.1
бітрейт: 1 509 кб/с

Аудіо # 2:
мова: англійська
переклад: оригінал
кодек: 5.1
бітрейт: 448 кб/с

Субтитри # 1-2:
мова: англійська (Full, SDH)
тип: програмні (м'які)
формат: *.srt


Info
Код:
General
Unique ID                                : 259400827210805298523529898776321542089 (0xC326C835E5C4042437E4773B9E1B47C9)
Complete name                            : F:\Video\Incredibles 2 (2018) 1080p H.265 [UKR_ENG].
Format                                   :
Format version                           : Version 4 / Version 2
File size                                : 6.52 GiB
Duration                                 : 1 h 57 min
Overall bit rate                         : 7 922 kb/s
Movie name                               : Incredibles 2 (2018)
Encoded date                             : UTC 2018-11-07 09:17:37
Writing application                      : v20.0.0 ('I Am The Sun') 32-bit
Writing library                          : libebml v1.3.5 + v1.4.8
Cover                                    : Yes
Attachments                              : Cover.jpg

Video
ID                                       : 1
Format                                   : HEVC
Format/Info                              : High Efficiency Video Coding
Format profile                           : Main [email protected]@High
Codec ID                                 : V_MPEGH/ISO/HEVC
Duration                                 : 1 h 57 min
Bit rate                                 : 5 962 kb/s
Width                                    : 1 920 pixels
Height                                   : 804 pixels
Display aspect ratio                     : 2.40:1
Frame rate mode                          : Constant
Frame rate                               : 23.976 (24000/1001) FPS
Color space                              : YUV
Chroma subsampling                       : 4:2:0
Bit depth                                : 10 bits
Bits/(Pixel*Frame)                       : 0.161
Stream size                              : 4.91 GiB (75%)
Writing library                          : x265 2.8+74-fd517ae68f93:[Windows][GCC 7.3.0][64 bit] 10bit
Encoding settings                        : cpuid=1049583 / frame-threads=5 / numa-pools=4 / wpp / no-pmode / no-pme / no-psnr / no-ssim / log-level=3 / input-csp=1 / input-res=1920x804 / interlace=0 / total-frames=0 / level-idc=41 / high-tier=1 / uhd-bd=0 / ref=5 / allow-non-conformance / no-repeat-headers / annexb / no-aud / no-hrd / info / hash=0 / no-temporal-layers / open-gop / min-keyint=24 / keyint=240 / gop-lookahead=0 / bframes=8 / b-adapt=2 / b-pyramid / bframe-bias=0 / rc-lookahead=40 / lookahead-slices=5 / scenecut=40 / radl=0 / no-intra-refresh / ctu=64 / min-cu-size=8 / no-rect / no-amp / max-tu-size=32 / tu-inter-depth=1 / tu-intra-depth=1 / limit-tu=0 / rdoq-level=0 / dynamic-rd=0.00 / no-ssim-rd / signhide / no-tskip / nr-intra=0 / nr-inter=0 / no-constrained-intra / strong-intra-smoothing / max-merge=2 / limit-refs=3 / no-limit-modes / me=3 / subme=7 / merange=57 / temporal-mvp / weightp / no-weightb / no-analyze-src-pics / deblock=-3:-3 / no-sao / no-sao-non-deblock / rd=3 / no-early-skip / rskip / no-fast-intra / no-tskip-fast / no-cu-lossless / no-b-intra / no-splitrd-skip / rdpenalty=0 / psy-rd=2.00 / psy-rdoq=0.00 / no-rd-refine / no-lossless / cbqpoffs=0 / crqpoffs=0 / rc=crf / crf=16.0 / qcomp=0.60 / qpstep=4 / stats-write=0 / stats-read=0 / vbv-maxrate=50000 / vbv-bufsize=50000 / vbv-init=0.9 / crf-max=0.0 / crf-min=0.0 / ipratio=1.40 / pbratio=1.30 / aq-mode=1 / aq-strength=1.00 / cutree / zone-count=0 / no-strict-cbr / qg-size=32 / no-rc-grain / qpmax=69 / qpmin=0 / no-const-vbv / sar=1 / overscan=0 / videoformat=5 / range=0 / colorprim=1 / transfer=1 / colormatrix=1 / chromaloc=0 / display-window=0 / max-cll=0,0 / min-luma=0 / max-luma=1023 / log2-max-poc-lsb=8 / vui-timing-info / vui-hrd-info / slices=1 / no-opt-qp-pps / no-opt-ref-list-length-pps / no-multi-pass-opt-rps / scenecut-bias=0.05 / no-opt-cu-delta-qp / no-aq-motion / no-hdr / no-hdr-opt / no-dhdr10-opt / no-idr-recovery-sei / analysis-reuse-level=5 / scale-factor=0 / refine-intra=0 / refine-inter=0 / refine-mv=0 / no-limit-sao / ctu-info=0 / no-lowpass-dct / refine-mv-type=0 / copy-pic=1 / max-ausize-factor=1.0 / no-dynamic-refine / no-single-sei
Language                                 : English
Default                                  : Yes
Forced                                   : No
Color range                              : Limited
Color primaries                          : BT.709
Transfer characteristics                 : BT.709
Matrix coefficients                      : BT.709

Audio #1
ID                                       : 2
Format                                   :
Format/Info                              : Digital Theater Systems
Codec ID                                 : A_DTS
Duration                                 : 1 h 57 min
Bit rate mode                            : Constant
Bit rate                                 : 1 509 kb/s
Channel(s)                               : 6 channels
Channel positions                        : Front: L C R, Side: L R, LFE
Sampling rate                            : 48.0 kHz
Frame rate                               : 93.750 FPS (512 SPF)
Bit depth                                : 24 bits
Compression mode                         : Lossy
Stream size                              : 1.24 GiB (19%)
Title                                    : Студія LeDoyen | DUB
Language                                 : Ukrainian
Default                                  : Yes
Forced                                   : No

Audio #2
ID                                       : 3
Format                                   : AC-3
Format/Info                              : Audio Coding 3
Codec ID                                 : A_AC3
Duration                                 : 1 h 57 min
Bit rate mode                            : Constant
Bit rate                                 : 448 kb/s
Channel(s)                               : 6 channels
Channel positions                        : Front: L C R, Side: L R, LFE
Sampling rate                            : 48.0 kHz
Frame rate                               : 31.250 FPS (1536 SPF)
Bit depth                                : 16 bits
Compression mode                         : Lossy
Stream size                              : 378 MiB (6%)
Title                                    : Original
Language                                 : English
Service kind                             : Complete Main
Default                                  : No
Forced                                   : No

Text #1
ID                                       : 4
Format                                   : UTF-8
Codec ID                                 : S_TEXT/UTF8
Codec ID/Info                            : UTF-8 Plain Text
Duration                                 : 1 h 55 min
Bit rate                                 : 71 b/s
Count of elements                        : 2024
Stream size                              : 60.3 KiB (0%)
Title                                    : Full
Language                                 : English
Default                                  : Yes
Forced                                   : No

Text #2
ID                                       : 5
Format                                   : UTF-8
Codec ID                                 : S_TEXT/UTF8
Codec ID/Info                            : UTF-8 Plain Text
Duration                                 : 1 h 55 min
Bit rate                                 : 81 b/s
Count of elements                        : 2327
Stream size                              : 68.8 KiB (0%)
Title                                    : SHD
Language                                 : English
Default                                  : No
Forced                                   : No

Menu
00:00:00.000                             : :00:00:00.000
00:03:22.327                             : :00:03:22.327
00:08:53.616                             : :00:08:53.616
00:09:36.784                             : :00:09:36.784
00:13:38.276                             : :00:13:38.276
00:15:44.735                             : :00:15:44.735
00:21:19.737                             : :00:21:19.737
00:23:28.282                             : :00:23:28.282
00:27:08.794                             : :00:27:08.794
00:28:59.571                             : :00:28:59.571
00:35:10.900                             : :00:35:10.900
00:39:07.845                             : :00:39:07.845
00:42:43.894                             : :00:42:43.894
00:43:42.411                             : :00:43:42.411
00:47:35.352                             : :00:47:35.352
00:48:53.889                             : :00:48:53.889
00:54:15.585                             : :00:54:15.585
00:56:16.039                             : :00:56:16.039
01:00:58.696                             : :01:00:58.696
01:02:01.884                             : :01:02:01.884
01:06:55.511                             : :01:06:55.511
01:09:18.237                             : :01:09:18.237
01:11:28.200                             : :01:11:28.200
01:12:37.686                             : :01:12:37.686
01:14:39.266                             : :01:14:39.266
01:18:00.968                             : :01:18:00.968
01:20:32.536                             : :01:20:32.536
01:25:01.930                             : :01:25:01.930
01:27:59.440                             : :01:27:59.440
01:31:53.925                             : :01:31:53.925
01:33:26.434                             : :01:33:26.434
01:36:25.237                             : :01:36:25.237
01:37:45.192                             : :01:37:45.192
01:43:56.897                             : :01:43:56.897
01:45:35.912                             : :01:45:35.912
01:47:30.902                             : :01:47:30.902
Скріншоти




07.11.2018 - Замінено доріжку на 5.1 та відеоряд на якісніший

Подяка пану Hanway за синхронізацію звуку.

Джерело:
Особиста оцінка: 0 - не дивився


 Трекер:    Зареєстрований   

Завантажити / скачати мультфільм українською



відео для новачків



 Зареєстрований:   2018-11-07 11:38
 Розмір:   6.52 GB 
 Оцінка мультфільму:   9.4/10 (Голосів: 28)
   
Інші релізи
   Суперсімейка 2 / Incredibles 2 (2018) 720p-mini Drool  18 / 0   1.67 GB   2018-11-06 17:53 
   Суперсімейка 2 / Incredibles 2 (2018) 1080p Ukr/Eng | Sub Eng igor911  55 / 0   9.85 GB   2018-11-04 12:23 
   Суперсімейка 2 / Incredibles 2 (2018) AVC Ukr/Eng | Sub Eng uafilm.tv  112 / 0   2.27 GB   2018-11-03 21:04 
   Суперсімейка 2 / Incredibles 2 (2018) 720p Ukr/Eng | Sub Eng 11FrYkT  46 / 1   6.26 GB   2018-11-03 20:57 
   Суперсімейка 2 / Incredibles 2 (2018) Remux 1080p Ukr/Eng | Sub Eng 11FrYkT  22 / 0   25.78 GB   2018-11-03 19:24 
   Суперсімейка 2 / Incredibles 2 (2018) 11FrYkT  67 / 4   1.46 GB   2018-11-03 19:23 
11FrYkT 
Модератор відео


З нами з: 20.02.11
Востаннє: 14.12.18
Повідомлень: 5261

2018-10-24 22:54  
-Star-Lord-, є доріжка з тюнс
-Star-Lord- 
VIP


З нами з: 09.08.18
Востаннє: 14.12.18
Повідомлень: 342

2018-10-25 09:39  
Оновлення!
vatanuki 
Свій


З нами з: 23.09.11
Востаннє: 12.12.18
Повідомлень: 90

2018-11-06 11:26  
Дякую чувак за H.265
-Star-Lord- 
VIP


З нами з: 09.08.18
Востаннє: 14.12.18
Повідомлень: 342

2018-11-07 11:38  
Оновлення!
vash1 
Поважний учасник


З нами з: 16.03.16
Востаннє: 14.12.18
Повідомлень: 155

2018-11-08 16:54  
Супер! Якраз почав тягнути з 1337 з СRF 18, а на толоці ви зробили навіть краще - з CRF 16 Happy + з доріжками бавитись не треба

Дякую!

Graag 
Новенький


З нами з: 08.05.16
Востаннє: 19.11.18
Повідомлень: 1

2018-11-13 22:15  
Качаю та роздаю!!!
Ваш часовий пояс: GMT + 2 Години

Нова тема   Відповісти