Мамма Міа! 2 / Mamma Mia! Here We Go Again (2018) Remux 1080p Ukr/Eng | Sub Eng

Нові коментарі

Нова тема   Відповісти
Автор Повідомлення
staf777 
Відео Гуртом - підтримка та поширення
Відео Гуртом - підтримка та поширення


З нами з: 16.11.16
Востаннє: 21.11.19
Повідомлень: 3034

2018-10-23 16:10  
Мамма Міа! 2 / Mamma Mia! Here We Go Again (2018) Remux 1080p Ukr/Eng | Sub Eng

Мамма Міа! 2 / Mamma Mia! Here We Go Again (2018) Remux 1080p Ukr/Eng | Sub Eng


Жанр: мюзикл, мелодрама, комедія
Країна: США, Велика Британія



Кінокомпанія: Universal Pictures, Legendary Pictures
Режисер: Ол Паркер
Актори: Меріл Стріп, Лілі Джеймс, Аманда Сайфред, Колін Ферт, Крістін Баранськи, Джулі Волтерс, Пірс Броснан, Джеремі Ірвін, Стеллан Скарсґард, Енді Гарсія та інші

Сюжет:
Світовий феномен повертається! Вирушаймо разом на грецький острів до романтичних пригод, легкого гумору і приголомшливих краєвидів.


Тривалість: 01:53:40
Якість: Remux 1080p
Відео:
кодек:
розмір кадру: 1920x1080
бітрейт: 28.0 Mб/с

Аудіо # 1:
мова: українська
переклад: професійний дубльований | студія LeDoyen
кодек: 2.0 [стерео]
бітрейт: 192 кб/с

Аудіо # 2:
мова: англійська
переклад: оригінал
кодек: TrueHD + Atmos 7.1
бітрейт: 3134 кб/с

Субтитри: (окремо)
мова: українська (на пісні - треба завантажити окремо)
тип: програмні (м'які)
формат: *.srt
переклад: подорожній

Субтитри:
мова: англійська
тип: програмні (м'які)
формат: *.srt
Info
General
Unique ID : 212593212198860664672611215812076064811 (0x9FEFF69D1AC55C324ACA09271165502B)
Complete name : S:\Фільми в HD\Комедія\Mamma Mia! Here We Go Again (2018) Remux 1080p [UKR_ENG] [Hurtom].
Format :
Format version : Version 4 / Version 2
File size : 24.9 GiB
Duration : 1 h 53 min
Overall bit rate mode : Variable
Overall bit rate : 31.4 Mb/s
Movie name : Mamma Mia! Here We Go Again (2018) Remux 1080p [UKR_ENG] [Hurtom]
Encoded date : UTC 2018-10-24 08:08:02
Writing application : v24.0.0 ('Beyond The Pale') 64-bit
Writing library : libebml v1.3.6 + v1.4.9
Cover : Yes
Attachments : cover.jpg

Video
ID : 1
Format : AVC
Format/Info : Advanced Video Codec
Format profile : [email protected]
Format settings : CABAC / 4 Ref Frames
Format settings, CABAC : Yes
Format settings, ReFrames : 4 frames
Codec ID : V_MPEG4/ISO/AVC
Duration : 1 h 53 min
Bit rate mode : Variable
Bit rate : 28.0 Mb/s
Maximum bit rate : 35.0 Mb/s
Width : 1 920 pixels
Height : 1 080 pixels
Display aspect ratio : 16:9
Frame rate mode : Constant
Frame rate : 23.976 (24000/1001) FPS
Color space : YUV
Chroma subsampling : 4:2:0
Bit depth : 8 bits
Scan type : Progressive
Bits/(Pixel*Frame) : 0.564
Stream size : 22.2 GiB (89%)
Default : Yes
Forced : No

Audio #1
ID : 2
Format : AC-3
Format/Info : Audio Coding 3
Codec ID : A_AC3
Duration : 1 h 53 min
Bit rate mode : Constant
Bit rate : 192 kb/s
Channel(s) : 2 channels
Channel positions : Front: L R
Sampling rate : 48.0 kHz
Frame rate : 31.250 FPS (1536 SPF)
Bit depth : 16 bits
Compression mode : Lossy
Stream size : 156 MiB (1%)
Title : [UA-DUB-LeDoyen]
Language : Ukrainian
Service kind : Complete Main
Default : Yes
Forced : Yes

Audio #2
ID : 3
Format : TrueHD
Format profile : TrueHD+Atmos / TrueHD
Codec ID : A_TRUEHD
Duration : 1 h 53 min
Bit rate mode : Variable
Bit rate : 3 134 kb/s
Maximum bit rate : 4 827 kb/s
Channel(s) : Object Based / 8 channels
Channel positions : Object Based / Front: L C R, Side: L R, Back: L R, LFE
Sampling rate : / 48.0 kHz
Frame rate : 1 200.000 FPS (40 SPF)
Compression mode : Lossless
Stream size : 2.49 GiB (10%)
Language : English
Default : No
Forced : No

Text #1
ID : 4
Format : UTF-8
Codec ID : S_TEXT/UTF8
Codec ID/Info : UTF-8 Plain Text
Duration : 1 h 53 min
Bit rate : 75 b/s
Count of elements : 2177
Stream size : 62.4 KiB (0%)
Title : SDH
Language : English
Default : No
Forced : No

Text #2
ID : 5
Format : UTF-8
Codec ID : S_TEXT/UTF8
Codec ID/Info : UTF-8 Plain Text
Duration : 1 h 51 min
Bit rate : 153 b/s
Count of elements : 2134
Stream size : 126 KiB (0%)
Title : SDH Colored
Language : English
Default : No
Forced : No
Скріншоти





Джерело: &
Особиста оцінка: 0 - не дивився
Мамма Міа! 2 / Mamma Mia! Here We Go Again (2018) Remux 1080p Ukr/Eng | Sub Eng
Мамма Міа! 2 / Mamma Mia! Here We Go Again (2018) Remux 1080p Ukr/Eng | Sub Eng


Золотий реліз (завантажене не впливає на рейтинг)
 Трекер:    Зареєстрований   

Завантажити / скачати фільм українською



відео для новачків



 Зареєстрований:   2018-10-24 11:33
 Розмір:   24.95 GB 
 Оцінка фільму:   9/10 (Голосів: 12)
   
Інші релізи
bot 
робот


З нами з: 30.09.07
Востаннє: 26.05.05
Повідомлень: 22498

2018-10-24 11:33  
Тему перенесено з Анонси релізів до форуму Фільми в HD


staf777

igor911 
Модератор відео


З нами з: 18.01.08
Востаннє: 21.11.19
Повідомлень: 13665

2018-10-24 12:49  
Ваш часовий пояс: GMT + 2 Години

Нова тема   Відповісти