Людина-мураха та Оса / Ant-Man and the Wasp (2018) UHD 4K 2160p HDR H.265 Ukr/Eng | Sub Eng

Нові коментарі

Нова тема   Відповісти
Автор Повідомлення
Babamin 
Свій


З нами з: 29.12.15
Востаннє: 13.12.18
Повідомлень: 50

2018-10-23 12:15  
Людина-мураха та Оса / Ant-Man and the Wasp (2018) UHD 4K 2160p HDR H.265 Ukr/Eng | Sub Eng

Людина-мураха та Оса / Ant-Man and the Wasp (2018) UHD 4K 2160p HDR H.265 Ukr/Eng | Sub Eng



Жанр: бойовик, пригодницький, фантастика
Країна: США



Кінокомпанія: Marvel Studios
Режисер: Пейтон Рід
Актори: Пол Радд, Еванджелін Ліллі, Майкл Дуґлас, Майкл Пенья, Мішель Пфайффер, Ханна Джон-Кеймен, Лоуренс Фішберн, Волтон Гоггінс, Боббі Каннавале, Джуді Ґрір та інші

Сюжет:
Скотт Ленґ, більш відомий у супергеройських колах як Людина-Мураха, ще після подій у німецькому аеропорту заслужив стати частиною вже легендарних Месників. Але сам чоловік не може розірватися на 2 частини – він вибирає між роллю героя та батька. Але все ж Скотт найбільше часу проводить у рідному Сан-Франциско ближче до дочки. Та борг кличе, тому його наставник Хенк Пім потребує допомоги - з'явився новий небезпечний ворог який легко проходить через будь-які стіни, а тому може вкрасти що завгодно. Але ось Людина-Мураха вміє дуже часто помилятися, потрібен хтось для підстраховки... Найкраще з цим, без сумніву, впорається Оса, яка також вміє змінювати свої розміри й інших предметів. Ця команда здатна на багато що.


Тривалість: 01:58:09
Якість: UltraHD 4K 2160p
Контейнер:

Відео:
кодек: H.265
розмір кадру: 3840 х 1608
бітрейт: 13,7 Мб/с
бітова глибина: 10 біт
кольоровий простір: BT.2020 (HDR)

Аудіо # 1:
мова: українська
переклад: професійний дубльований | студія LeDoyen
кодек: HD MA 5.1
бітрейт: 3677 кб/с
Інформація про дубляж
Переклад: Олег Колесніков
Режисер дубляжу: Анна Пащенко
Ролі дублювали:
Скотт Ленґ / Людина-мураха / Пол Радд - Андрій Твердак,
Гоуп Ван Дайн / Оса / Еванджелін Ліллі - Світлана Шекера,
Луїс / Майкл Пенья - Назар Задніпровський,
Генк Пінн / Майкл Даґлес - Владислав Пупков
Білл Фостер / Лоуренс Фішберн - Євген Сінчуков,
Сонні Берч / Волтон Гоггінс - Олександр Форманчук,
Джиммі Ву / Рендалл Парк - Акмал Гурєзов,
Дженет Ван Дайн / Мішель Пфайфер - Тамара Морозова,
Кессі Ленґ / Еббі Райдер Фортсон - Любава Берло,
Ава / Яга / Ханна Джон-Кеймен - Катерина Качан,
Меґґі / Джуді Грір - Інна Бєлікова,
Дейв / Ті Ай - Роман Молодій,
Курт / David Dastmalchian - Дмитро Челнов
Пекстон / Боббі Каннавале - ОлексійЧереватенко,
Стен Лі - Юрій Висоцький,
а також: Михайло Войчук, Володимир Кокотунов, Юрій Ребрик, Павло Лі, Віктор Данилюк, Петро Сова, Вікторія Білан, Ксенія Лук'яненко, Дмитро Рассказов, В'ячеслав Дудко, Марія Єременко, Катерина Башкіна-Зленко, Сергій Кияшко, Сергій Гутько.

Виробництво української версії:
Студія дубляжу: LeDoyen, мікс-студія: SHEPPERTON INTERNATIONAL.
Творчий консультант - MACIEJ EYMAN
DISNEY CHARACTER VOICES INTERNATIONAL, INC.
Аудіо # 2:
мова: українська
переклад: професійний дубльований | студія LeDoyen
кодек: 5.1
бітрейт: 640 кб/с

Аудіо # 3:
мова: українська
переклад: професійний дубльований | студія LeDoyen
кодек: 2.0
бітрейт: 192 кб/с

Аудіо # 4:
мова: англійська
переклад: оригінал
кодек: TrueHD+Atmos 7.1
бітрейт: 4746 кб/с

Аудіо # 5:
мова: англійська
переклад: оригінал
кодек: 5.1
бітрейт: 640 кб/с

Субтитри # 1:
мова: українська (форсовані)
тип: програмні (м'які)
формат: *.srt

Субтитри # 2:
мова: англійська (SDH)
тип: програмні (м'які)
формат: *.srt
Info:
General
Complete name : Ant-Man.and.the.Wasp.(2018).Repack.UHD..4K.2160p [Hurtom].
Format :
Format version : Version 4
File size : 19.6 GiB
Duration : 1 h 58 min
Overall bit rate mode : Variable
Overall bit rate : 23.7 Mb/s
Movie name : Людина-мураха та Оса / Ant-Man and the Wasp (2018) REPACK UHD 4K 2160p [UKR_ENG] [Hurtom]
Encoded date : UTC 2018-11-19 06:42:58
Writing application : v28.0.0 ('Voice In My Head') 64-bit
Writing library : libebml v1.3.6 + v1.4.9
Attachments : 95240.png

Video
ID : 1
Format : HEVC
Format/Info : High Efficiency Video Coding
Commercial name : HDR10
Format profile : Main [email protected]@High
Codec ID : V_MPEGH/ISO/HEVC
Duration : 1 h 58 min
Bit rate : 13.7 Mb/s
Width : 3 840 pixels
Height : 1 608 pixels
Display aspect ratio : 2.40:1
Frame rate mode : Constant
Frame rate : 23.976 (24000/1001) FPS
Color space : YUV
Chroma subsampling : 4:2:0 (Type 2)
Bit depth : 10 bits
Bits/(Pixel*Frame) : 0.093
Stream size : 11.3 GiB (58%)
Title : Ant-Man.and.the.Wasp.(2018).UHD..4K.2160p [Hurtom]
Writing library : x265 2.9+2-7e978ed93d60:[Windows][MSVC 1915][64 bit] 10bit
Encoding settings : cpuid=1111039 / frame-threads=4 / numa-pools=20 / wpp / no-pmode / no-pme / no-psnr / no-ssim / log-level=2 / input-csp=1 / input-res=3840x1608 / interlace=0 / total-frames=169978 / level-idc=51 / high-tier=1 / uhd-bd=0 / ref=4 / no-allow-non-conformance / repeat-headers / annexb / no-aud / no-hrd / info / hash=0 / no-temporal-layers / no-open-gop / min-keyint=23 / keyint=250 / gop-lookahead=0 / bframes=8 / b-adapt=2 / b-pyramid / bframe-bias=0 / rc-lookahead=48 / lookahead-slices=4 / scenecut=40 / radl=0 / no-intra-refresh / ctu=64 / min-cu-size=8 / rect / no-amp / max-tu-size=32 / tu-inter-depth=1 / tu-intra-depth=1 / limit-tu=0 / rdoq-level=2 / dynamic-rd=0.00 / no-ssim-rd / signhide / no-tskip / nr-intra=0 / nr-inter=0 / no-constrained-intra / no-strong-intra-smoothing / max-merge=5 / limit-refs=3 / limit-modes / me=3 / subme=7 / merange=57 / temporal-mvp / weightp / weightb / no-analyze-src-pics / no-deblock / no-sao / no-sao-non-deblock / rd=4 / no-early-skip / no-rskip / no-fast-intra / no-tskip-fast / no-cu-lossless / no-b-intra / no-splitrd-skip / rdpenalty=0 / psy-rd=2.00 / psy-rdoq=2.00 / no-rd-refine / no-lossless / cbqpoffs=0 / crqpoffs=0 / rc=crf / crf=17.5 / qcomp=0.75 / qpstep=4 / stats-write=0 / stats-read=0 / vbv-maxrate=160000 / vbv-bufsize=160000 / vbv-init=0.9 / crf-max=0.0 / crf-min=0.0 / ipratio=1.40 / pbratio=1.30 / aq-mode=1 / aq-strength=0.85 / no-cutree / zone-count=16 / zones: / start-frame=2809 / end-frame=2923 / qp=17 / zones: / start-frame=4029 / end-frame=4186 / qp=17 / zones: / start-frame=4972 / end-frame=5826 / qp=17 / zones: / start-frame=5868 / end-frame=6806 / qp=17 / zones: / start-frame=6936 / end-frame=7046 / qp=17 / zones: / start-frame=16298 / end-frame=17469 / qp=17 / zones: / start-frame=65647 / end-frame=66848 / qp=17 / zones: / start-frame=115560 / end-frame=117217 / qp=17 / zones: / start-frame=121916 / end-frame=121974 / qp=17 / zones: / start-frame=122075 / end-frame=122279 / qp=17 / zones: / start-frame=131486 / end-frame=133741 / qp=17 / zones: / start-frame=135497 / end-frame=135740 / qp=17 / zones: / start-frame=136191 / end-frame=137505 / qp=17 / zones: / start-frame=152905 / end-frame=153921 / qp=17 / zones: / start-frame=159715 / end-frame=169099 / qp=24 / zones: / start-frame=169490 / end-frame=169661 / qp=24 / no-strict-cbr / qg-size=32 / no-rc-grain / qpmax=69 / qpmin=0 / no-const-vbv / sar=0 / overscan=0 / videoformat=5 / range=0 / colorprim=9 / transfer=16 / colormatrix=9 / chromaloc=1 / chromaloc-top=2 / chromaloc-bottom=2 / display-window=0 / master-display=G(13250,34500)B(7500,3000)R(34000,16000)WP(15635,16450)L(10000000,1) / max-cll=0,0 / min-luma=0 / max-luma=1023 / log2-max-poc-lsb=8 / vui-timing-info / vui-hrd-info / slices=1 / no-opt-qp-pps / no-opt-ref-list-length-pps / no-multi-pass-opt-rps / scenecut-bias=0.05 / no-opt-cu-delta-qp / no-aq-motion / hdr / hdr-opt / no-dhdr10-opt / no-idr-recovery-sei / analysis-reuse-level=5 / scale-factor=0 / refine-intra=0 / refine-inter=0 / refine-mv=0 / no-limit-sao / ctu-info=0 / no-lowpass-dct / refine-mv-type=0 / copy-pic=1 / max-ausize-factor=1.0 / no-dynamic-refine / no-single-sei
Default : Yes
Forced : No
Color range : Limited
Color primaries : BT.2020
Transfer characteristics : PQ
Matrix coefficients : BT.2020 non-constant
Mastering display color primaries : Display P3
Mastering display luminance : min: 0.0001 cd/m2, max: 1000 cd/m2

Audio #1
ID : 2
Format : XLL
Format/Info : Digital Theater Systems
Commercial name : -HD Master Audio
Codec ID : A_DTS
Duration : 1 h 58 min
Bit rate mode : Variable
Bit rate : 3 677 kb/s
Channel(s) : 6 channels
Channel layout : C L R Ls Rs LFE
Sampling rate : 48.0 kHz
Frame rate : 93.750 FPS (512 SPF)
Bit depth : 24 bits
Compression mode : Lossless
Stream size : 3.03 GiB (16%)
Title : дубльований [студія LeDoyen]
Language : Ukrainian
Default : Yes
Forced : No

Audio #2
ID : 3
Format : AC-3
Format/Info : Audio Coding 3
Commercial name : Dolby Digital
Codec ID : A_AC3
Duration : 1 h 58 min
Bit rate mode : Constant
Bit rate : 640 kb/s
Channel(s) : 6 channels
Channel layout : L R C LFE Ls Rs
Sampling rate : 48.0 kHz
Frame rate : 31.250 FPS (1536 SPF)
Bit depth : 16 bits
Compression mode : Lossy
Stream size : 541 MiB (3%)
Title : дубльований [студія LeDoyen]
Language : Ukrainian
Service kind : Complete Main
Default : No
Forced : No

Audio #3
ID : 4
Format : AC-3
Format/Info : Audio Coding 3
Commercial name : Dolby Digital
Codec ID : A_AC3
Duration : 1 h 58 min
Bit rate mode : Constant
Bit rate : 192 kb/s
Channel(s) : 2 channels
Channel layout : L R
Sampling rate : 48.0 kHz
Frame rate : 31.250 FPS (1536 SPF)
Bit depth : 16 bits
Compression mode : Lossy
Stream size : 162 MiB (1%)
Title : дубльований [студія LeDoyen]
Language : Ukrainian
Service kind : Complete Main
Default : No
Forced : No

Audio #4
ID : 5
Format : MLP FBA 16-ch
Format/Info : Meridian Lossless Packing FBA with 16-channel presentation
Commercial name : Dolby TrueHD with Dolby Atmos
Codec ID : A_TRUEHD
Duration : 1 h 58 min
Bit rate mode : Variable
Bit rate : 4 746 kb/s
Maximum bit rate : 7 335 kb/s
Channel(s) : 8 channels
Channel layout : L R C LFE Ls Rs Lb Rb
Sampling rate : 48.0 kHz
Frame rate : 1 200.000 FPS (40 SPF)
Compression mode : Lossless
Stream size : 3.92 GiB (20%)
Language : English
Default : No
Forced : No
Number of dynamic objects : 13
Bed channel count : 1 channel
Bed channel configuration : LFE

Audio #5
ID : 6
Format : AC-3
Format/Info : Audio Coding 3
Commercial name : Dolby Digital
Codec ID : A_AC3
Duration : 1 h 58 min
Bit rate mode : Constant
Bit rate : 640 kb/s
Channel(s) : 6 channels
Channel layout : L R C LFE Ls Rs
Sampling rate : 48.0 kHz
Frame rate : 31.250 FPS (1536 SPF)
Bit depth : 16 bits
Compression mode : Lossy
Stream size : 541 MiB (3%)
Language : English
Service kind : Complete Main
Default : No
Forced : No

Text #1
ID : 7
Format : UTF-8
Codec ID : S_TEXT/UTF8
Codec ID/Info : UTF-8 Plain Text
Duration : 1 h 54 min
Bit rate : 0 b/s
Count of elements : 6
Stream size : 348 Bytes (0%)
Title : Forced
Language : Ukrainian
Default : Yes
Forced : Yes

Text #2
ID : 8
Format : UTF-8
Codec ID : S_TEXT/UTF8
Codec ID/Info : UTF-8 Plain Text
Duration : 1 h 57 min
Bit rate : 68 b/s
Count of elements : 2137
Stream size : 59.3 KiB (0%)
Title : SDH
Language : English
Default : No
Forced : No

Menu
00:00:00.000 : :Chapter 01
00:04:03.034 : :Chapter 02
00:10:16.407 : :Chapter 03
00:13:39.860 : :Chapter 04
00:21:25.450 : :Chapter 05
00:29:07.829 : :Chapter 06
00:36:09.083 : :Chapter 07
00:40:56.579 : :Chapter 08
00:50:17.431 : :Chapter 09
00:58:59.077 : :Chapter 10
01:04:56.434 : :Chapter 11
01:12:54.286 : :Chapter 12
01:18:32.124 : :Chapter 13
01:24:44.913 : :Chapter 14
01:29:47.340 : :Chapter 15
01:36:16.270 : :Chapter 16
01:43:35.334 : :Chapter 17
01:46:59.830 : :Chapter 18
Скріншоти:








Джерело: &

Подяка пану Hanway за створення 5.1 та пану igor911 за допомогу.

19.11.2018 реліз оновлено: додано українські доріжки 5.1


 Трекер:    Зареєстрований   

Завантажити / скачати фільм українською



відео для новачків



 Зареєстрований:   2018-11-19 13:36
 Розмір:   19.56 GB 
 Оцінка фільму:   9.4/10 (Голосів: 7)
   
Vicarious 
Частий відвідувач


З нами з: 09.01.18
Востаннє: 14.12.18
Повідомлень: 30

2018-10-23 12:44  
2й скрін кріпота )))
legioneRRR 
Частий відвідувач


З нами з: 02.01.15
Востаннє: 14.12.18
Повідомлень: 28

2018-10-23 21:20  
Щось слабенький бітрейт якийсь =(
igor911 
Відео Гуртом
Відео Гуртом


З нами з: 18.01.08
Востаннє: 14.12.18
Повідомлень: 11605

2018-10-24 08:11  
legioneRRR написано:
Щось слабенький бітрейт якийсь

бітрейт підібрано автоматично кодеком під заданий рівень якості (див. параметри кодування: rc=crf / crf=17.5) + купа шматків, кодованих з qp=17, що теоретично має давати непогану якість, наближену до оригіналу. Більше можна було б дізнатись з логу кодування та порівняння скріншотів, але їх немає.

YurOK_88 
Новенький


З нами з: 26.09.18
Востаннє: 13.12.18
Повідомлень: 2

2018-10-24 22:40  
Мене хватило на 10 хв, не зміг додивитись фільм)
Vicarious 
Частий відвідувач


З нами з: 09.01.18
Востаннє: 14.12.18
Повідомлень: 30

2018-10-26 15:03  
YurOK_88

дивний ти чувак, особисто мені фільм сподобався, відключаєш мозок, хаваєш піццу і насолоджуєшся шикарним укр. дубляжем з забійними жартами....

Ford4.6 
Новенький


З нами з: 12.01.17
Востаннє: 13.12.18
Повідомлень: 1

2018-10-26 17:28  
[b]YurOKпідскажіть чим можна кодірувати відео 4k H265
igor911 
Відео Гуртом
Відео Гуртом


З нами з: 18.01.08
Востаннє: 14.12.18
Повідомлень: 11605

2018-10-26 17:36  
Ford4.6 написано:
чим можна кодірувати відео 4k H265

MeGUI

YurOK_88 
Новенький


З нами з: 26.09.18
Востаннє: 13.12.18
Повідомлень: 2

2018-10-28 12:40  
Ford4.6
Я через Смарт ТВ дивлюсь Wide grin

Vicarious
Можливо і справді потрібно робити висновок у кінці перегляду, просто мене фільм не зачепив з самого початку.

petro172839 
Новенький


З нами з: 24.11.14
Востаннє: 08.12.18
Повідомлень: 2

2018-11-03 20:28  
Це класно, але мій TV тільки відтворює h264 в 4k ((
libracinema 
Новенький


З нами з: 27.10.17
Востаннє: 14.12.18
Повідомлень: 9

2018-11-14 00:36  
Коли вже буде звук 5.1?
Babamin 
Свій


З нами з: 29.12.15
Востаннє: 13.12.18
Повідомлень: 50

2018-11-19 09:33  
19.11.2018 реліз оновлено: додано українські доріжки 5.1

Oleksa_64 
Свій


З нами з: 25.07.13
Востаннє: 14.12.18
Повідомлень: 51

2018-11-19 16:56  
Станьте на роздачу, будь ласка.
Ваш часовий пояс: GMT + 2 Години

Нова тема   Відповісти