Джі. Ай. Джо: Атака кобри 2 [Розширена версія] / G.I. Joe: Retaliation [Extended Cut] (2013) AVC Ukr/Eng | Sub Ukr/Eng

Нові коментарі

Нова тема   Відповісти
Автор Повідомлення
staf777 
Відео Гуртом - підтримка та поширення
Відео Гуртом - підтримка та поширення


З нами з: 16.11.16
Востаннє: 12.08.20
Повідомлень: 3937

2018-10-23 11:50  
Джі. Ай. Джо: Атака кобри 2 [Розширена версія] / G.I. Joe: Retaliation [Extended Cut] (2013) AVC Ukr/Eng | Sub Ukr/Eng

Джі. Ай. Джо: Атака кобри 2 [Розширена версія] / G.I. Joe: Retaliation [Extended Cut] (2013) AVC Ukr/Eng | Sub Ukr/Eng


Жанр: фантастика, бойовик, пригодницький, трилер
Країна: США



Кінокомпанія: Paramount Pictures, Metro-Goldwyn-Mayer (MGM), Skydance Productions
Режисер: Джон М. Чу / Jon M. Chu
Актори: Двейн Джонсон / Dwayne Johnson, Едріанн Палікі / Adrianne Palicki, Брюс Вілліс / Bruce Willis, Рей Парк / Ray Park, Лі Бен Гон / Byung-hun Lee, Ченнінґ Тейтум /Channing Tatum, Люк Брейсі / Luke Bracey, Рей Стівенсон / Ray Stevenson та інші

Сюжет:
За наказом Зартана, який прийняв подобу президента США, на захист уряду стає спецпідрозділ "Кобра", а загін "G.I. Joe", що виконував раніше ці обов'язки, ліквідовується. Члени "G.I. Joe", які вижили, об'єднуються, щоб завдати удару у відповідь.


Тривалість: 02:03:00
Якість: AVC
Відео:
кодек:
розмір кадру: 1024x424
бітрейт: 2400 кб/с

Аудіо # 1:
мова: українська
переклад: професійний дубльований
кодек: 5.1
бітрейт: 448 кб/с

Аудіо # 2:
мова: англійська
переклад: оригінал
кодек: 5.1
бітрейт: 448 кб/с

Субтитри # 1:
мова: українська (форсовані - на розширені моменти)
тип: програмні (м'які)
формат: *.srt

Субтитри # 2:
мова: українська
тип: програмні (м'які)
формат: *.srt

Субтитри # 3:
мова: англійська
тип: програмні (м'які)
формат: *.srt
Скріншоти





MI
General
Unique ID : 318184881723769366529845027678671561863 (0xEF602DDD302434727CC9A85D9BFB6487)
Complete name : S:\G.I. Joe Retaliation [Extended Cut] (2013) AVC [UKR_ENG] [Hurtom].
Format :
Format version : Version 4 / Version 2
File size : 2.82 GiB
Duration : 2 h 3 min
Overall bit rate : 3 284 kb/s
Movie name : G.I. Joe: Retaliation [Extended Cut] (2013) AVC [UKR_ENG] [Hurtom]
Encoded date : UTC 2018-10-23 08:26:37
Writing application : v24.0.0 ('Beyond The Pale') 64-bit
Writing library : libebml v1.3.6 + v1.4.9
Cover : Yes
Attachments : cover.jpg

Video
ID : 1
Format : AVC
Format/Info : Advanced Video Codec
Format profile : [email protected]
Format settings : CABAC / 9 Ref Frames
Format settings, CABAC : Yes
Format settings, ReFrames : 9 frames
Codec ID : V_MPEG4/ISO/AVC
Duration : 2 h 3 min
Bit rate : 2 400 kb/s
Width : 1 024 pixels
Height : 424 pixels
Display aspect ratio : 2.40:1
Frame rate mode : Constant
Frame rate : 23.976 (24000/1001) FPS
Color space : YUV
Chroma subsampling : 4:2:0
Bit depth : 8 bits
Scan type : Progressive
Bits/(Pixel*Frame) : 0.231
Stream size : 2.05 GiB (73%)
Writing library : core 125 r2200 999b753
Encoding settings : cabac=1 / ref=9 / deblock=1:-2:-2 / analyse=0x3:0x133 / me=umh / subme=11 / psy=1 / psy_rd=1.00:0.00 / mixed_ref=1 / me_range=32 / chroma_me=1 / trellis=2 / 8x8dct=1 / cqm=0 / deadzone=21,11 / fast_pskip=0 / chroma_qp_offset=-2 / threads=12 / lookahead_threads=2 / sliced_threads=0 / nr=0 / decimate=0 / interlaced=0 / bluray_compat=0 / constrained_intra=0 / bframes=9 / b_pyramid=2 / b_adapt=1 / b_bias=0 / direct=3 / weightb=1 / open_gop=0 / weightp=2 / keyint=240 / keyint_min=23 / scenecut=40 / intra_refresh=0 / rc_lookahead=80 / rc=2pass / mbtree=1 / bitrate=2400 / ratetol=1.0 / qcomp=0.60 / qpmin=0 / qpmax=69 / qpstep=4 / cplxblur=20.0 / qblur=0.5 / ip_ratio=1.40 / aq=1:1.00
Default : Yes
Forced : No

Audio #1
ID : 2
Format : AC-3
Format/Info : Audio Coding 3
Codec ID : A_AC3
Duration : 2 h 3 min
Bit rate mode : Constant
Bit rate : 448 kb/s
Channel(s) : 6 channels
Channel positions : Front: L C R, Side: L R, LFE
Sampling rate : 48.0 kHz
Frame rate : 31.250 FPS (1536 SPF)
Bit depth : 16 bits
Compression mode : Lossy
Stream size : 394 MiB (14%)
Language : Ukrainian
Service kind : Complete Main
Default : Yes
Forced : Yes

Audio #2
ID : 3
Format : AC-3
Format/Info : Audio Coding 3
Codec ID : A_AC3
Duration : 2 h 3 min
Bit rate mode : Constant
Bit rate : 448 kb/s
Channel(s) : 6 channels
Channel positions : Front: L C R, Side: L R, LFE
Sampling rate : 48.0 kHz
Frame rate : 31.250 FPS (1536 SPF)
Bit depth : 16 bits
Compression mode : Lossy
Stream size : 394 MiB (14%)
Language : English
Service kind : Complete Main
Default : No
Forced : No

Text #1
ID : 4
Format : UTF-8
Codec ID : S_TEXT/UTF8
Codec ID/Info : UTF-8 Plain Text
Duration : 1 h 51 min
Bit rate : 9 b/s
Count of elements : 151
Stream size : 7.46 KiB (0%)
Title : [UA-FORCED]
Language : Ukrainian
Default : Yes
Forced : Yes

Text #2
ID : 5
Format : UTF-8
Codec ID : S_TEXT/UTF8
Codec ID/Info : UTF-8 Plain Text
Duration : 1 h 52 min
Bit rate : 80 b/s
Count of elements : 1302
Stream size : 66.1 KiB (0%)
Title : [UA-Full]
Language : Ukrainian
Default : No
Forced : No

Text #3
ID : 6
Format : UTF-8
Codec ID : S_TEXT/UTF8
Codec ID/Info : UTF-8 Plain Text
Duration : 1 h 52 min
Bit rate : 46 b/s
Count of elements : 1284
Stream size : 38.2 KiB (0%)
Language : English
Default : No
Forced : No
Дякую пану Demrandir за українську доріжку та саби
Джерело: &
Особиста оцінка: 8 - мені сподобалося
Джі. Ай. Джо: Атака кобри 2 [Розширена версія] / G.I. Joe: Retaliation [Extended Cut] (2013) AVC Ukr/Eng | Sub Ukr/Eng

Джі. Ай. Джо: Атака кобри 2 [Розширена версія] / G.I. Joe: Retaliation [Extended Cut] (2013) AVC Ukr/Eng | Sub Ukr/Eng


 Трекер:    Зареєстрований   

Завантажити / скачати фільм українською



відео для новачків



 Зареєстрований:   2018-10-23 12:34
 Розмір:   2.82 GB 
 Оцінка фільму:   9/10 (Голосів: 15)
   
Інші релізи
   Джі. Ай. Джо: Атака кобри 2 [Розширена версія] / G.I. Joe: Retaliation [Extended Cut] (2013) 1080p Ukr/Eng | Sub Ukr/Eng Demrandir  4 / 0   8.03 GB   2016-07-25 15:19 
   Джі. Ай. Джо: Атака кобри 2 [Розширена версія] / G.I. Joe: Retaliation [Extended Cut] (2013) [5.1 ] Український дубляж + вставки оригіналу | Sub Ukr Demrandir  0 / 0   394 MB   2016-07-25 14:59 
   Джі. Ай. Джо: Атака кобри 2 / G.I. Joe: Retaliation (2013) 1080p Ukr/Eng | Sub Ukr/Eng igor911  3 / 0   7.6 GB   2013-07-30 20:54 
   G.I. Joe: Атака кобри 2 / G.I. Joe: Retaliation (2013) AVC Ukr/Eng | Sub Ukr/Eng patriot2305  1 / 0   2.91 GB   2013-07-29 14:10 
   G.I. Joe: Атака кобри 2 / G.I. Joe: Retaliation (2013) 720p Ukr/Eng | Sub Ukr/Eng [email protected]  0 / 0   5.65 GB   2013-07-28 22:01 
   G.I. Joe: Атака кобри / G.I. Joe: The Rise of Cobra (2009) / G.I. Joe: Атака кобри 2 / G.I. Joe: Retaliation (2013)  Ukr/Eng | Sub Ukr/Eng AngryBirdsUA  3 / 0   4.37 GB   2013-07-28 18:13 
   Джі. Ай. Джо: Атака кобри 2 / G.I. Joe: Retaliation (2013) Ukr/Eng | Sub Ukr/Eng Gelios  4 / 0   2.18 GB   2013-07-28 12:36 
   G.I. Joe: Атака кобри / G.I. Joe: The Rise of Cobra (2009) / G.I. Joe: Атака кобри 2 / G.I. Joe: Retaliation (2013)  patriot2305  2 / 0   2.94 GB   2013-07-28 02:37 
Ваш часовий пояс: GMT + 2 Години

Нова тема   Відповісти