Татуйований / Le Tatoue (1968) AVC Ukr/Fra | Sub Eng

Нові коментарі

Нова тема   Відповісти
Автор Повідомлення
staf777 
Відео Гуртом - підтримка та поширення
Відео Гуртом - підтримка та поширення


З нами з: 16.11.16
Востаннє: 24.04.19
Повідомлень: 2284

2018-10-23 10:14  
Татуйований / Le Tatoue (1968) AVC Ukr/Fra | Sub Eng

Татуйований / Le Tatoue (1968) AVC Ukr/Fra | Sub Eng
Інші постери





Жанр: комедія
Країна: Франція, Італія



Режисер: Дені Де Ла Пательер
Актори: Луї де Фюнес, Жан Габен, Поль Мерсі, Ів Барсак, П'єр Торнад, Жан-П'єр Даррас, Джо Уорфілд, Дональд Дж. фон Кертц, Лін Шардонне, Ібрахим Сек

Сюжет:
Спритний і нечистий на руку торговець антикваріатом Феліс Мезере випадково побачив на широкій спині літнього чоловіка, який позував художнику, незвичайне татуювання. Досвідчене око пройдисвіта відразу визначає руку майстра - і дійсно, цей малюнок колись зробив майору Леграну великий Модільяні. Феліс одразу ж пропонує Леграну продати шкіру зі спини за будь-які гроші, але той з обуренням відмовляється від абсурдної пропозиції. Та знавіснілий від жадібності антиквар готовий на все, щоб отримати безцінний шедевр і продати його втридорога. Легран врешті-решт погоджується, але в обмін на невелику послугу. Феліс не роздумуючи погоджується, і вони відправляються в незвичайну подорож...


Тривалість: 01:30:05
Якість: AVC
Відео:
кодек:
розмір кадру: 1024x434
бітрейт: 3000 кб/с

Аудіо # 1:
мова: українська
переклад: багатоголосий закадровий
кодек: 2.0
бітрейт: 192 кб/с

Аудіо # 2:
мова: французька
переклад: оригінал
кодек: 2.0
бітрейт: 224 кб/с

Субтитри:
мова: англійська
тип: програмні (м'які)
формат: *.srt
Info
General
Unique ID : 235617171955137531708228189357425902994 (0xB1423778DDC6B77F76FBD3EE0E554592)
Complete name : S:\Le Tatoue (1968) AVC [Ukr,Fra] [Hurtom].
Format :
Format version : Version 4 / Version 2
File size : 2.15 GiB
Duration : 1 h 30 min
Overall bit rate : 3 418 kb/s
Movie name : Le Tatoue (1968) AVC [Ukr,Fra] [Hurtom]
Encoded date : UTC 2018-10-23 08:09:56
Writing application : v24.0.0 ('Beyond The Pale') 64-bit
Writing library : libebml v1.3.6 + v1.4.9
Cover : Yes
Attachments : cover.jpg

Video
ID : 1
Format : AVC
Format/Info : Advanced Video Codec
Format profile : [email protected]
Format settings : CABAC / 12 Ref Frames
Format settings, CABAC : Yes
Format settings, ReFrames : 12 frames
Codec ID : V_MPEG4/ISO/AVC
Duration : 1 h 30 min
Bit rate : 3 000 kb/s
Width : 1 024 pixels
Height : 434 pixels
Display aspect ratio : 2.35:1
Frame rate mode : Constant
Frame rate : 24.000 FPS
Color space : YUV
Chroma subsampling : 4:2:0
Bit depth : 8 bits
Scan type : Progressive
Bits/(Pixel*Frame) : 0.281
Stream size : 1.89 GiB (88%)
Writing library : core 152 r2851 ba24899
Encoding settings : cabac=1 / ref=12 / deblock=1:-3:-2 / analyse=0x3:0x113 / me=umh / subme=10 / psy=1 / psy_rd=1.00:0.10 / mixed_ref=1 / me_range=32 / chroma_me=1 / trellis=2 / 8x8dct=1 / cqm=0 / deadzone=21,11 / fast_pskip=0 / chroma_qp_offset=-3 / threads=6 / lookahead_threads=1 / sliced_threads=0 / nr=0 / decimate=0 / interlaced=0 / bluray_compat=0 / constrained_intra=0 / bframes=12 / b_pyramid=2 / b_adapt=2 / b_bias=0 / direct=3 / weightb=1 / open_gop=0 / weightp=2 / keyint=250 / keyint_min=24 / scenecut=40 / intra_refresh=0 / rc=2pass / mbtree=0 / bitrate=3000 / ratetol=1.0 / qcomp=0.60 / qpmin=0 / qpmax=69 / qpstep=4 / cplxblur=20.0 / qblur=0.5 / ip_ratio=1.40 / pb_ratio=1.30 / aq=3:1.00
Language : English
Default : Yes
Forced : No
Color range : Limited
Color primaries : BT.709
Transfer characteristics : BT.709
Matrix coefficients : BT.709

Audio #1
ID : 2
Format : AC-3
Format/Info : Audio Coding 3
Codec ID : A_AC3
Duration : 1 h 30 min
Bit rate mode : Constant
Bit rate : 192 kb/s
Channel(s) : 2 channels
Channel positions : Front: L R
Sampling rate : 48.0 kHz
Frame rate : 31.250 FPS (1536 SPF)
Bit depth : 16 bits
Compression mode : Lossy
Stream size : 124 MiB (6%)
Title : UA-MVO, KIHO
Language : Ukrainian
Service kind : Complete Main
Default : Yes
Forced : Yes

Audio #2
ID : 3
Format : AC-3
Format/Info : Audio Coding 3
Codec ID : A_AC3
Duration : 1 h 30 min
Bit rate mode : Constant
Bit rate : 224 kb/s
Channel(s) : 2 channels
Channel positions : Front: L R
Sampling rate : 48.0 kHz
Frame rate : 31.250 FPS (1536 SPF)
Bit depth : 16 bits
Compression mode : Lossy
Stream size : 144 MiB (7%)
Language : French
Service kind : Complete Main
Default : No
Forced : No

Text
ID : 4
Format : UTF-8
Codec ID : S_TEXT/UTF8
Codec ID/Info : UTF-8 Plain Text
Duration : 1 h 28 min
Bit rate : 51 b/s
Count of elements : 850
Stream size : 33.3 KiB (0%)
Language : English
Default : No
Forced : No

Menu
00:00:00.000 : fr:Chapitre 1
00:09:00.000 : fr:Chapitre 2
00:18:00.000 : fr:Chapitre 3
00:27:00.000 : fr:Chapitre 4
00:36:00.000 : fr:Chapitre 5
00:45:00.000 : fr:Chapitre 6
00:54:00.000 : fr:Chapitre 7
01:03:00.000 : fr:Chapitre 8
01:12:00.000 : fr:Chapitre 9
01:21:00.000 : fr:Chapitre 10
Скріншоти






Джерело: &
За доріжки дякую Spiellberg, прешоджерело укр.звуку https://toloka.to/t12816: синхронізація звуку - RB26DETT, запис з ТБ Romario_O


Срібний реліз (на рейтинг впливає 50% завантаженого)
 Трекер:    Зареєстрований   

Завантажити / скачати фільм українською



відео для новачків



 Зареєстрований:   2018-10-23 22:24
 Розмір:   2.15 GB 
 Оцінка фільму:   8.7/10 (Голосів: 17)
   
Інші релізи
   Татуйований / Le Tatoue (1968) 1080p Ukr/Fra | Sub Eng staf777  1 / 0   8.19 GB   2017-02-14 10:55 
   Татуйований / Le Tatoue (1968) 720p Ukr/Fra chaoscor  3 / 0   2.93 GB   2013-03-24 12:38 
   Татуйований / Le Tatoue (1968) Ukr/Fra RB26DETT  3 / 0   1.46 GB   2010-04-11 17:50 
bot 
робот


З нами з: 30.09.07
Востаннє: 26.05.05
Повідомлень: 21237

2018-10-23 22:24  
Тему перенесено з Анонси релізів до форуму Фільми


staf777

masiff 
Свій


З нами з: 06.12.16
Востаннє: 19.04.19
Повідомлень: 76

2018-10-25 16:37  
Луі красунчик !!!
Mensory 
Новенький


З нами з: 08.07.16
Востаннє: 17.04.19
Повідомлень: 1

2019-02-16 03:03  
Мега класне кіно)
Ваш часовий пояс: GMT + 2 Години

Нова тема   Відповісти