Шпигун, який мене кинув / The Spy Who Dumped Me (2018) 720p Ukr/Eng | Sub Eng

Нові коментарі

Нова тема   Відповісти
Автор Повідомлення
staf777 
Відео Гуртом - підтримка та поширення
Відео Гуртом - підтримка та поширення


З нами з: 16.11.16
Востаннє: 26.09.20
Повідомлень: 4047

2018-10-23 08:34  
Шпигун, який мене кинув / The Spy Who Dumped Me (2018) 720p Ukr/Eng | Sub Eng

Шпигун, який мене кинув / The Spy Who Dumped Me (2018) 720p Ukr/Eng | Sub Eng


Жанр: бойовик, комедія
Країна: США



Кінокомпанія: BRON Studios, Imagine Entertainment, Lionsgate
Режисер: Сузанна Фоґель
Актори: Міла Куніс, Кейт МакКіннон, Сем Г'юен, Джастін Теру, Джилліан Андерсон, Іванна Сахно, Фред Меламед, Кев Адамс, Пол Райзер, Девід Ісерсон та інші

Сюжет:
Подруги з Лос-Анджелесу Одрі та Морган не здогадувались, наскільки насиченим може стати їхнє життя. Виявляється колишній хлопець Одрі – спецагент американської розвідки. І вороги, яких він нажив несучи свою службу, охоче вб’ють усіх близьких йому людей. Тож Одрі, а разом з нею і Морган, на прицілі. На дівчат чекають засідки, перегони через усю Європу та стрілянина. Зрештою, усі зрозуміють хто тут справжній агент ЦРУ, а хто випадкова людина.


Тривалість: 01:56:56
Якість: 720p
Відео:
кодек:
розмір кадру: 1280x534
бітрейт: 4684 кб/с

Аудіо # 1:
мова: українська
переклад: професійний дубльований | студія Pie Post Production
кодек: 2.0 [стерео]
бітрейт: 192 кб/с

Аудіо # 2:
мова: англійська
переклад: оригінал
кодек: 5.1
бітрейт: 640 кб/с

Субтитри # 1-3:
мова: англійська (повні, SDH, SDH кольорові)
тип: програмні (м'які)
формат: *.srt
Info
General
Unique ID : 196460435576693013675366240743711324931 (0x93CCE750C94B8ED12DCBA05456FC3B03)
Complete name : S:\Фільми в HD\Комедія\The Spy Who Dumped Me (2018) 720p [UKR_ENG] [Hurtom].
Format :
Format version : Version 4 / Version 2
File size : 4.49 GiB
Duration : 1 h 56 min
Overall bit rate : 5 493 kb/s
Movie name : The Spy Who Dumped Me (2018) 720p [UKR_ENG] [Hurtom]
Encoded date : UTC 2018-10-23 05:50:37
Writing application : v24.0.0 ('Beyond The Pale') 64-bit
Writing library : libebml v1.3.6 + v1.4.9
Cover : Yes
Attachments : cover.jpg

Video
ID : 1
Format : AVC
Format/Info : Advanced Video Codec
Format profile : [email protected]
Format settings : CABAC / 9 Ref Frames
Format settings, CABAC : Yes
Format settings, ReFrames : 9 frames
Codec ID : V_MPEG4/ISO/AVC
Duration : 1 h 56 min
Bit rate : 4 684 kb/s
Width : 1 280 pixels
Height : 534 pixels
Display aspect ratio : 2.40:1
Frame rate mode : Constant
Frame rate : 23.976 (24000/1001) FPS
Color space : YUV
Chroma subsampling : 4:2:0
Bit depth : 8 bits
Scan type : Progressive
Bits/(Pixel*Frame) : 0.286
Stream size : 3.80 GiB (85%)
Title : CHD
Writing library : core 155 r2901 7d0ff22
Encoding settings : cabac=1 / ref=9 / deblock=1:-3:-3 / analyse=0x3:0x113 / me=umh / subme=10 / psy=1 / psy_rd=1.05:0.10 / mixed_ref=1 / me_range=32 / chroma_me=1 / trellis=2 / 8x8dct=1 / cqm=0 / deadzone=21,11 / fast_pskip=0 / chroma_qp_offset=-2 / threads=17 / lookahead_threads=1 / sliced_threads=0 / nr=0 / decimate=1 / interlaced=0 / bluray_compat=0 / constrained_intra=0 / bframes=6 / b_pyramid=2 / b_adapt=2 / b_bias=0 / direct=3 / weightb=1 / open_gop=0 / weightp=2 / keyint=250 / keyint_min=23 / scenecut=40 / intra_refresh=0 / rc=2pass / mbtree=0 / bitrate=4684 / ratetol=1.0 / qcomp=0.70 / qpmin=0 / qpmax=69 / qpstep=4 / cplxblur=20.0 / qblur=0.5 / ip_ratio=1.40 / pb_ratio=1.30 / aq=3:1.00
Language : English
Default : Yes
Forced : No

Audio #1
ID : 2
Format : AC-3
Format/Info : Audio Coding 3
Codec ID : A_AC3
Duration : 1 h 56 min
Bit rate mode : Constant
Bit rate : 192 kb/s
Channel(s) : 2 channels
Channel positions : Front: L R
Sampling rate : 48.0 kHz
Frame rate : 31.250 FPS (1536 SPF)
Bit depth : 16 bits
Compression mode : Lossy
Stream size : 161 MiB (3%)
Language : Ukrainian
Service kind : Complete Main
Default : Yes
Forced : Yes

Audio #2
ID : 3
Format : AC-3
Format/Info : Audio Coding 3
Codec ID : A_AC3
Duration : 1 h 56 min
Bit rate mode : Constant
Bit rate : 640 kb/s
Channel(s) : 6 channels
Channel positions : Front: L C R, Side: L R, LFE
Sampling rate : 48.0 kHz
Frame rate : 31.250 FPS (1536 SPF)
Bit depth : 16 bits
Compression mode : Lossy
Stream size : 535 MiB (12%)
Title : Original
Language : English
Service kind : Complete Main
Default : No
Forced : No

Text #1
ID : 4
Format : UTF-8
Codec ID : S_TEXT/UTF8
Codec ID/Info : UTF-8 Plain Text
Duration : 1 h 48 min
Bit rate : 79 b/s
Count of elements : 1958
Stream size : 63.1 KiB (0%)
Title : Full
Language : English
Default : No
Forced : No

Text #2
ID : 5
Format : UTF-8
Codec ID : S_TEXT/UTF8
Codec ID/Info : UTF-8 Plain Text
Duration : 1 h 48 min
Bit rate : 80 b/s
Count of elements : 2086
Stream size : 64.1 KiB (0%)
Title : SDH
Language : English
Default : No
Forced : No

Text #3
ID : 6
Format : UTF-8
Codec ID : S_TEXT/UTF8
Codec ID/Info : UTF-8 Plain Text
Duration : 1 h 49 min
Bit rate : 131 b/s
Count of elements : 2394
Stream size : 106 KiB (0%)
Title : SDH Colored
Language : English
Default : No
Forced : No

Menu
00:00:00.000 : en:00:00:00.000
00:07:32.410 : en:00:07:32.410
00:14:08.097 : en:00:14:08.097
00:20:44.535 : en:00:20:44.535
00:28:28.040 : en:00:28:28.040
00:35:15.864 : en:00:35:15.864
00:41:22.438 : en:00:41:22.438
00:47:24.675 : en:00:47:24.675
00:52:19.136 : en:00:52:19.136
01:02:37.295 : en:01:02:37.295
01:09:52.146 : en:01:09:52.146
01:14:41.644 : en:01:14:41.644
01:23:34.551 : en:01:23:34.551
01:26:44.449 : en:01:26:44.449
01:41:58.612 : en:01:41:58.612
01:46:01.313 : en:01:46:01.313
Скріншоти





Джерело: & &
Особиста оцінка: 0 - не дивився
Шпигун, який мене кинув / The Spy Who Dumped Me (2018) 720p Ukr/Eng | Sub Eng
Шпигун, який мене кинув / The Spy Who Dumped Me (2018) 720p Ukr/Eng | Sub Eng


 Трекер:    Зареєстрований   

Завантажити / скачати фільм українською



відео для новачків



 Зареєстрований:   2018-10-23 09:20
 Розмір:   4.49 GB 
 Оцінка фільму:   7.8/10 (Голосів: 38)
   
Panther2214 
Попереджень: 1
Попереджень: 1 


З нами з: 29.09.17
Востаннє: 26.09.20
Повідомлень: 439

2018-10-23 18:41  
Чому такий низький рейтинг? Невже фільм такий поганий? Не варто завантажувати?
+380954897458 
VIP


З нами з: 02.06.17
Востаннє: 18.09.20
Повідомлень: 942

2018-10-23 20:49  
Panther2214
Ніколи не зважайте на рейтинг. Кожен сам для себе повинен вирішити, дивитися те чи інше кіно, чи не дивитися. До того ж, для фільма подібного жанру це дуже високий рейтинг. Зараз, в основному, лише супергероїчні блокбастери мають надвисокі рейтинги, які, на мою особисту думку, не мають ніякого відношення до цінності самого фільма.

peacemakerua 
Частий відвідувач


З нами з: 24.03.13
Востаннє: 26.09.20
Повідомлень: 28

2018-10-29 22:43  
Ооо, наша Іванка знялася Happy
mutomba 
VIP


З нами з: 20.10.13
Востаннє: 26.09.20
Повідомлень: 361

2018-10-30 14:13  
Трохи тупувате, із декількома ржачними моментами... Один раз увечері можна переглянути Happy
Режисер із сценаристом трохи погнали, поприколювались. %)

+380954897458 
VIP


З нами з: 02.06.17
Востаннє: 18.09.20
Повідомлень: 942

2018-11-01 21:52  
peacemakerua
Міла Куніс теж наша, з Чернівців, здається.

eevviill 
Поважний учасник


З нами з: 13.08.08
Востаннє: 18.09.20
Повідомлень: 150

2018-11-13 19:53  
mutomba
Точно таке ж враження.
На 7.3 тяне

Lil`Antoni 
VIP


З нами з: 25.02.12
Востаннє: 24.09.20
Повідомлень: 846

2019-05-20 18:04  
Посміясвя від душі,
Гарна комедія бойовик.

Ваш часовий пояс: GMT + 2 Години

Нова тема   Відповісти