Формула 1. Сезон 2018. Етап 18. Гран-Прі США. Гонка (21.10.2018) IPTV 1080p 50fps

Нові коментарі

Нова тема   Відповісти
Останній раз роздавалося papageno (2020-03-20)
Автор Повідомлення
sergiyko.5 
Забанено
Забанено


З нами з: 25.02.16
Востаннє: 29.10.20
Повідомлень: 3651

2018-10-22 07:28  
Формула 1. Сезон 2018. Етап 18. Гран-Прі США. Гонка (21.10.2018) IPTV 1080p 50fps


Формула 1. Сезон 2018. Етап 18. Гран-Прі США. Гонка (21.10.2018) IPTV 1080p 50fps

Жанр: Перегони Формула 1
Країна: США
Телеканал: Перший автомобільний
Коментатор: Максим Подзігун

Опис:
Гонка вісімнадцятого етапу Гран-Прі США 2018 року відбулась 21 жовтня 2018 року о 21 годині за київським часом.


Тривалість: 02:07:31
Якість: IPTV

Відео: кодек: розмір кадру: 1920 х 1080 бітрейт: 6000 кб/с частота кадрів: 50 кад/с
Аудіо: мова: українська кодек: 2.0 бітрейт: 128 кб/с

Завантажити з ГуглДиску: https://drive.google.com/open?id=1tSZTWaA9LPIW3yAcr93ndQtjW9U09yxD
Про файл:
General
Complete name : G:\Torrents2\SPORT\Formula 1\F1.2018.Race\F1.2018.18.USA.Race.1080p.IPTV.Ukr.mp4
Format : MPEG-4
Format profile : Base Media
Codec ID : isom (isom/iso2/avc1/mp41)
File size : 5.47 GiB
Duration : 2 h 7 min
Overall bit rate mode : Constant
Overall bit rate : 6 138 kb/s
Writing application : Lavf54.63.104

Video
ID : 1
Format : AVC
Format/Info : Advanced Video Codec
Format profile : [email protected]
Format settings : CABAC / 2 Ref Frames
Format settings, CABAC : Yes
Format settings, ReFrames : 2 frames
Codec ID : avc1
Codec ID/Info : Advanced Video Coding
Duration : 2 h 7 min
Bit rate mode : Constant
Bit rate : 6 000 kb/s
Width : 1 920 pixels
Height : 1 080 pixels
Display aspect ratio : 16:9
Frame rate mode : Constant
Frame rate : 50.000 FPS
Color space : YUV
Chroma subsampling : 4:2:0
Bit depth : 8 bits
Scan type : Progressive
Bits/(Pixel*Frame) : 0.058
Stream size : 5.34 GiB (98%)

Audio
ID : 2
Format :
Format/Info : Advanced Audio Codec
Format profile : LC
Codec ID : mp4a-40-2
Duration : 2 h 7 min
Duration_LastFrame : -21 ms
Bit rate mode : Constant
Bit rate : 125 kb/s
Channel(s) : 2 channels
Channel positions : Front: L R
Sampling rate : 48.0 kHz
Frame rate : 46.875 FPS (1024 SPF)
Compression mode : Lossy
Stream size : 114 MiB (2%)
Language : Ukrainian
Default : Yes
Alternate group : 1
Скріншоти:


Автор запису: sergiyko


 Трекер:    Зареєстрований   

Завантажити / скачати торрент



відео для новачків



 Зареєстрований:   2018-10-22 07:28
 Розмір:   5.47 GB 
 Оцінка:   10/10 (Голосів: 8)
   
DeLorenzo 
Новенький


З нами з: 07.07.12
Востаннє: 11.06.20
Повідомлень: 2

2018-10-22 18:13  
Дякую!
Ваш часовий пояс: GMT + 2 Години

Нова тема   Відповісти