Формула 1. Сезон 2018. Етап 18. Гран-Прі США. Гонка (21.10.2018) HDTV 1080i

Нові коментарі

Нова тема   Відповісти
Автор Повідомлення
sergiyko.5 
VIP


З нами з: 25.02.16
Востаннє: 25.10.20
Повідомлень: 3617

2018-10-21 22:20  
Формула 1. Сезон 2018. Етап 18. Гран-Прі США. Гонка (21.10.2018) HDTV 1080i


Формула 1. Сезон 2018. Етап 18. Гран-Прі США. Гонка (21.10.2018) HDTV 1080i

Жанр: Перегони Формула 1
Країна: США
Телеканал: Перший автомобільний
Коментатор: Максим Подзігун

Опис:
Гонка вісімнадцятого етапу Гран-Прі США 2018 року відбулась 21 жовтня 2018 року о 21 годині за київським часом.


Тривалість: 02:07:28
Якість: HDTV

Відео:кодек: розмір кадру: 1920 х 1080 бітрейт: 5570 кб/с
Аудіо: мова: українська кодек: 2.0 бітрейт: 128 кб/с
Про файл:
General
Unique ID : 83294016986784358210193097072244899302 (0x3EA9D81A3C2A93F00650677AE21B3DE6)
Complete name : G:\Torrents2\SPORT\Formula 1\F1.2018.Race\F1.2018.18.USA.Race.1080i.HDTV.Ukr.
Format :
Format version : Version 4 / Version 2
File size : 5.08 GiB
Duration : 2 h 7 min
Overall bit rate : 5 701 kb/s
Encoded date : UTC 2018-10-21 20:15:03
Writing application : v27.0.0 ('Metropolis') 64-bit
Writing library : libebml v1.3.6 + v1.4.9

Video
ID : 1
Format : AVC
Format/Info : Advanced Video Codec
Format profile : [email protected]
Format settings : CABAC / 4 Ref Frames
Format settings, CABAC : Yes
Format settings, ReFrames : 4 frames
Codec ID : V_MPEG4/ISO/AVC
Duration : 2 h 7 min
Bit rate : 5 573 kb/s
Width : 1 920 pixels
Height : 1 080 pixels
Display aspect ratio : 16:9
Frame rate mode : Variable
Frame rate : 27.062 FPS
Original frame rate : 25.000 FPS
Standard : Component
Color space : YUV
Chroma subsampling : 4:2:0
Bit depth : 8 bits
Scan type : MBAFF
Scan type, store method : Interleaved fields
Scan order : Top Field First
Bits/(Pixel*Frame) : 0.099
Stream size : 4.96 GiB (98%)
Language : English
Default : Yes
Forced : No
Color range : Limited
Color primaries : BT.709
Transfer characteristics : BT.709
Matrix coefficients : BT.709

Audio
ID : 2
Format :
Format/Info : Advanced Audio Codec
Format profile : LC
Codec ID : A_AAC-2
Duration : 2 h 7 min
Bit rate : 125 kb/s
Channel(s) : 2 channels
Channel positions : Front: L R
Sampling rate : 48.0 kHz
Frame rate : 46.875 FPS (1024 SPF)
Compression mode : Lossy
Stream size : 114 MiB (2%)
Title : Максим Подзігун
Language : Ukrainian
Default : Yes
Forced : No
Скріншоти:


Автор запису: sergiyko


 Трекер:    Зареєстрований   

Завантажити / скачати торрент



відео для новачків



 Зареєстрований:   2018-10-21 22:20
 Розмір:   5.08 GB 
 Оцінка:   10/10 (Голосів: 25)
   
Umbrella.Corps 
Свій


З нами з: 09.04.17
Востаннє: 24.10.20
Повідомлень: 61

2018-10-21 22:24  
Це була краща гонка в цьому сезоні)
Paul Sugar 
Новенький


З нами з: 03.02.12
Востаннє: 18.11.19
Повідомлень: 1

2018-10-21 22:25  
Дякую!
AlexG9 
Новенький


З нами з: 12.01.15
Востаннє: 26.10.20
Повідомлень: 7

2018-10-22 00:30  
Я вибачаюсь, а в вас немає в IPTV якості?
sergiyko.5 
VIP


З нами з: 25.02.16
Востаннє: 25.10.20
Повідомлень: 3617

2018-10-22 07:30  
AlexG9 написано:
немає в IPTV якості?

Ось запис https://toloka.to/t95888

legioneRRR 
Частий відвідувач


З нами з: 02.01.15
Востаннє: 25.10.20
Повідомлень: 33

2018-10-22 12:21  
Umbrella.Corps написано:
Це була краща гонка в цьому сезоні)
Кімі витягнув ситуацію для Ферарі. Без нього був би черновий провал.
А Фетю чомусь постійно після контактів розвертає Rolleyes (1)

AlexG9 
Новенький


З нами з: 12.01.15
Востаннє: 26.10.20
Повідомлень: 7

2018-10-22 12:42  
sergiyko.5Дякую
Umbrella.Corps 
Свій


З нами з: 09.04.17
Востаннє: 24.10.20
Повідомлень: 61

2018-10-22 18:51  
legioneRRR
Та навіть якби Кімі не витягнув, все одно гонка була б цікава )

N.W.A 
VIP


З нами з: 22.11.13
Востаннє: 26.10.20
Повідомлень: 355

2018-10-25 17:15  
Кімі молодець. Легендарний гонщик, тай гонка дуже цікава.
Чемпіонство червоним цього сезону вже напевне не світить, але можна хоч на останніх гран-прі показати хто є хто.

Ваш часовий пояс: GMT + 2 Години

Нова тема   Відповісти