Місто гріхів 2: Жінка, заради якої варто вбивати / Sin City: A Dame to Kill For (2014) AVC Ukr/Eng | Sub Eng

Нові коментарі

Нова тема   Відповісти
Автор Повідомлення
staf777 
Відео Гуртом - підтримка та поширення
Відео Гуртом - підтримка та поширення


З нами з: 16.11.16
Востаннє: 23.05.19
Повідомлень: 2379

2018-10-21 17:11  
Місто гріхів 2: Жінка, заради якої варто вбивати / Sin City: A Dame to Kill For (2014) AVC Ukr/Eng | Sub Eng

Місто гріхів 2: Жінка, заради якої варто вбивати / Sin City: A Dame to Kill For (2014) AVC Ukr/Eng | Sub Eng

«Не існує справедливості без гріха»

Жанр: бойовик, кримінальний, трилер
Країна: США



Кінокомпанія: Aldamisa Entertainment, Demarest Films, Miramax Films, Quick Draw Productions, Solipsist Film, Troublemaker Studios
Режисер: Френк Міллер, Роберт Родрігес
Актори: Єва Грін, Міккі Рурк, Джош Бролін, Джессіка Альба, Джозеф Гордон-Левітт, Розаріо Доусон, Пауерс Бут, Денніс Хейсберт, Джеймі Чунг, Брюс Вілліс

Сюжет:
У темних провулках Міста Гріхів Дуайт планує жорстоко помститися жінці на ім'я Ава Лорд, яка його зрадила, у той час як Ненсі намагається змиритися зі смертю детектива Хартігана.


Тривалість: 01:42:08
Якість: AVC
Відео:
кодек:
розмір кадру: 1024x552
бітрейт: 2749 кб/с

Аудіо # 1 :
мова: українська
переклад: професійний дубльований
кодек: 2.0
бітрейт: 192 кб/с

Аудіо # 2:
мова: англійська
переклад: оригінал
кодек: АС3 5.1
бітрейт: 448 кб/с

Субтитри # 1-3: [Full+SDH+Colored]
мова: англійська
тип: програмні (м'які)
формат: *.srt
Info
Код:

General
Unique ID                   : 34938083571985987371997537677707700972 (0x1A48D483BB883E019C3E13592BA1EAEC)
Complete name               : S:\Фільми AVC\Бойовик\Sin City A Dame to Kill For (2014) AVC [UKR_ENG] [Hurtom].
Format                      :
Format version              : Version 4 / Version 2
File size                   : 2.42 GiB
Duration                    : 1 h 42 min
Overall bit rate            : 3 392 kb/s
Movie name                  : Sin City: A Dame to Kill For (2014) AVC [UKR_ENG] [Hurtom]
Encoded date                : UTC 2018-10-21 17:33:41
Writing application         : v24.0.0 ('Beyond The Pale') 64-bit
Writing library             : libebml v1.3.6 + v1.4.9
Cover                       : Yes
Attachments                 : cover.jpg

Video
ID                          : 1
Format                      : AVC
Format/Info                 : Advanced Video Codec
Format profile              : [email protected]
Format settings             : CABAC / 10 Ref Frames
Format settings, CABAC      : Yes
Format settings, ReFrames   : 10 frames
Codec ID                    : V_MPEG4/ISO/AVC
Duration                    : 1 h 42 min
Bit rate                    : 2 749 kb/s
Width                       : 1 024 pixels
Height                      : 552 pixels
Display aspect ratio        : 1.85:1
Frame rate mode             : Constant
Frame rate                  : 23.976 (24000/1001) FPS
Color space                 : YUV
Chroma subsampling          : 4:2:0
Bit depth                   : 8 bits
Scan type                   : Progressive
Bits/(Pixel*Frame)          : 0.203
Stream size                 : 1.96 GiB (81%)
Writing library             : core 142 r2431 ac76440
Encoding settings           : cabac=1 / ref=10 / deblock=1:-3:-3 / analyse=0x3:0x133 / me=umh / subme=11 / psy=1 / psy_rd=1.00:0.15 / mixed_ref=1 / me_range=32 / chroma_me=1 / trellis=2 / 8x8dct=1 / cqm=0 / deadzone=21,11 / fast_pskip=1 / chroma_qp_offset=-3 / threads=12 / lookahead_threads=2 / sliced_threads=0 / nr=0 / decimate=0 / interlaced=0 / bluray_compat=0 / constrained_intra=0 / bframes=8 / b_pyramid=2 / b_adapt=2 / b_bias=0 / direct=3 / weightb=1 / open_gop=0 / weightp=2 / keyint=240 / keyint_min=23 / scenecut=40 / intra_refresh=0 / rc=2pass / mbtree=0 / bitrate=2749 / ratetol=1.0 / qcomp=0.60 / qpmin=0 / qpmax=69 / qpstep=4 / cplxblur=20.0 / qblur=0.5 / ip_ratio=1.40 / pb_ratio=1.30 / aq=1:1.00
Language                    : English
Default                     : Yes
Forced                      : No

Audio #1
ID                          : 2
Format                      : AC-3
Format/Info                 : Audio Coding 3
Codec ID                    : A_AC3
Duration                    : 1 h 42 min
Bit rate mode               : Constant
Bit rate                    : 192 kb/s
Channel(s)                  : 2 channels
Channel positions           : Front: L R
Sampling rate               : 48.0 kHz
Frame rate                  : 31.250 FPS (1536 SPF)
Bit depth                   : 16 bits
Compression mode            : Lossy
Stream size                 : 140 MiB (6%)
Title                       : [UA-DUB]
Language                    : Ukrainian
Service kind                : Complete Main
Default                     : Yes
Forced                      : Yes

Audio #2
ID                          : 3
Format                      : AC-3
Format/Info                 : Audio Coding 3
Codec ID                    : A_AC3
Duration                    : 1 h 42 min
Bit rate mode               : Constant
Bit rate                    : 448 kb/s
Channel(s)                  : 6 channels
Channel positions           : Front: L C R, Side: L R, LFE
Sampling rate               : 48.0 kHz
Frame rate                  : 31.250 FPS (1536 SPF)
Bit depth                   : 16 bits
Compression mode            : Lossy
Stream size                 : 327 MiB (13%)
Language                    : English
Service kind                : Complete Main
Default                     : No
Forced                      : No

Text #1
ID                          : 4
Format                      : UTF-8
Codec ID                    : S_TEXT/UTF8
Codec ID/Info               : UTF-8 Plain Text
Duration                    : 1 h 34 min
Bit rate                    : 58 b/s
Count of elements           : 1409
Stream size                 : 40.7 KiB (0%)
Title                       : Full
Language                    : English
Default                     : No
Forced                      : No

Text #2
ID                          : 5
Format                      : UTF-8
Codec ID                    : S_TEXT/UTF8
Codec ID/Info               : UTF-8 Plain Text
Duration                    : 1 h 39 min
Bit rate                    : 59 b/s
Count of elements           : 1534
Stream size                 : 43.5 KiB (0%)
Title                       : SDH
Language                    : English
Default                     : No
Forced                      : No

Text #3
ID                          : 6
Format                      : UTF-8
Codec ID                    : S_TEXT/UTF8
Codec ID/Info               : UTF-8 Plain Text
Duration                    : 1 h 39 min
Bit rate                    : 68 b/s
Count of elements           : 1534
Stream size                 : 49.8 KiB (0%)
Title                       : Colored
Language                    : English
Default                     : No
Forced                      : No

Menu
00:00:00.000                : en:Chapter 01
00:07:04.965                : en:Chapter 02
00:14:23.571                : en:Chapter 03
00:20:40.113                : en:Chapter 04
00:26:18.909                : en:Chapter 05
00:31:26.884                : en:Chapter 06
00:38:13.666                : en:Chapter 07
00:45:24.637                : en:Chapter 08
00:50:49.628                : en:Chapter 09
00:57:46.588                : en:Chapter 10
01:07:05.979                : en:Chapter 11
01:12:30.804                : en:Chapter 12
01:16:48.435                : en:Chapter 13
01:23:19.828                : en:Chapter 14
01:28:59.082                : en:Chapter 15
01:35:22.966                : en:Chapter 16
Скріншоти





Джерело: &
Особиста оцінка: 0 - не дивився
За доріжку подяка пану patriot2305


 Трекер:    Зареєстрований   

Завантажити / скачати фільм українською



відео для новачків



 Зареєстрований:   2018-10-21 22:11
 Розмір:   2.42 GB 
 Оцінка фільму:   8.1/10 (Голосів: 10)
   
bot 
робот


З нами з: 30.09.07
Востаннє: 26.05.05
Повідомлень: 21374

2018-10-21 22:10  
Тему перенесено з Анонси релізів до форуму Фільми


staf777

Ваш часовий пояс: GMT + 2 Години

Нова тема   Відповісти