Формула 1. Сезон 2018. Етап 18. Гран-Прі США. Кваліфікація (21.10.2018) HDTV 1080i

Нові коментарі

Нова тема   Відповісти
Автор Повідомлення
sergiyko.5 
VIP


З нами з: 25.02.16
Востаннє: 26.10.20
Повідомлень: 3618

2018-10-21 07:32  
Формула 1. Сезон 2018. Етап 18. Гран-Прі США. Кваліфікація (21.10.2018) HDTV 1080i


Формула 1. Сезон 2018. Етап 18. Гран-Прі США. Кваліфікація (21.10.2018) HDTV 1080i

Жанр: Перегони Формула 1
Країна: США
Телеканал: Перший автомобільний
Коментатор: Максим Подзігун

Опис:
Кваліфікація вісімнадцятого етапу Гран-Прі США 2018 року відбулась 21 жовтня 2018 року о 0 годині за київським часом.


Тривалість: 01:12:14
Якість: HDTV

Відео:кодек: розмір кадру: 1920 х 1080 бітрейт: 5400 кб/с
Аудіо: мова: українська кодек: 2.0 бітрейт: 128 кб/с
Про файл:
General
Unique ID : 250527171448387521806034786969481905959 (0xBC79C734050E9368DDEC5862BA400727)
Complete name : G:\Torrents2\SPORT\Formula 1\F1.2018.Qualifying\F1.2018.18.USA.Qualifying.1080i.HDTV.Ukr.
Format :
Format version : Version 4 / Version 2
File size : 2.79 GiB
Duration : 1 h 12 min
Overall bit rate : 5 529 kb/s
Encoded date : UTC 2018-10-21 05:29:16
Writing application : v27.0.0 ('Metropolis') 64-bit
Writing library : libebml v1.3.6 + v1.4.9

Video
ID : 1
Format : AVC
Format/Info : Advanced Video Codec
Format profile : [email protected]
Format settings : CABAC / 4 Ref Frames
Format settings, CABAC : Yes
Format settings, ReFrames : 4 frames
Codec ID : V_MPEG4/ISO/AVC
Duration : 1 h 12 min
Bit rate : 5 400 kb/s
Width : 1 920 pixels
Height : 1 080 pixels
Display aspect ratio : 16:9
Frame rate mode : Variable
Frame rate : 26.757 FPS
Original frame rate : 25.000 FPS
Standard : Component
Color space : YUV
Chroma subsampling : 4:2:0
Bit depth : 8 bits
Scan type : MBAFF
Scan type, store method : Interleaved fields
Scan order : Top Field First
Bits/(Pixel*Frame) : 0.097
Stream size : 2.72 GiB (98%)
Language : English
Default : Yes
Forced : No
Color range : Limited
Color primaries : BT.709
Transfer characteristics : BT.709
Matrix coefficients : BT.709

Audio
ID : 2
Format :
Format/Info : Advanced Audio Codec
Format profile : LC
Codec ID : A_AAC-2
Duration : 1 h 12 min
Bit rate : 125 kb/s
Channel(s) : 2 channels
Channel positions : Front: L R
Sampling rate : 48.0 kHz
Frame rate : 46.875 FPS (1024 SPF)
Compression mode : Lossy
Stream size : 64.8 MiB (2%)
Title : Максим Подзігун
Language : Ukrainian
Default : Yes
Forced : No
Скріншоти:


Автор запису: sergiyko


 Трекер:    Зареєстрований   

Завантажити / скачати торрент



відео для новачків



 Зареєстрований:   2018-10-21 07:32
 Розмір:   2.79 GB 
 Оцінка:   10/10 (Голосів: 15)
   
kimif1 
Новенький


З нами з: 01.01.17
Востаннє: 17.08.20
Повідомлень: 5

2018-10-21 08:10  
Огромное спасибо!!!
armogun 
Попереджень: 1
Попереджень: 1 


З нами з: 04.05.13
Востаннє: 26.10.20
Повідомлень: 700

2018-10-21 10:17  
K3 драматична була
Umbrella.Corps 
Свій


З нами з: 09.04.17
Востаннє: 24.10.20
Повідомлень: 61

2018-10-21 12:49  
Дякую )
11FrYkT 
Модератор відео


З нами з: 20.02.11
Востаннє: 26.10.20
Повідомлень: 7007

2018-10-21 15:28  
kimif1 написано:
Огромное спасибо!!!

Цитата:
2. Правила та обмеження форуму

Всім без винятку заборонено:
2.1 Спілкуватися іншою мовою, аніж літературною українською; використовувати для написання українських слів іншу абетку, аніж кирилицю

Ваш часовий пояс: GMT + 2 Години

Нова тема   Відповісти